img image001 image001 image001 image001 image001 image001 image001 image001 image001 image001 image001 image001 image001 image001 image001

Planets Sun Sun Sun
Статистика раздачи
Автор: Nickolas3434 | Размер: 2.51 ГБ | Добавлен: 02 июл 2016
Раздают: 10    Качают: 6
Скачать торрент
Скачать торрент
Описание торрента

СообщениеДобавлено: 02 июл 2016 

Информация о фильме
Название: Тайны Острова Мако (Секрет, Русалки Мако), 3 сезон
Оригинальное название: Mako Mermaids
Год выпуска: 2016
Жанр: фэнтези, драма, мелодрама, комедия, приключения, семейный
Выпущено: Австралия, Jonathan M. Shiff Productions
Режиссер: Грант Браун, Ивэн Кларри
В ролях: Ондина - Иззи (Изабел) Дюрант
Мимми - Элли Бертрам
Вейлан - Linda Ngo
Зак - Чай Ромруен
Эви - Джемма Форсайт
Кэм - Доминик Дойчер
Карли - Брук Николь Ли
Дэвид - Роуэн Хиллс
Крис - Тейлор Глокнер
Рита Сантос - Керит Эткинсон
О фильме: Сериал возвращает нас в уже знакомый лунный бассейн. Когда 15-летний Зак отправляется на пикник на остров Мако, то даже не подозревает, что каждый его шаг внимательно отслеживается тремя русалками — Сиреной, Никси и Лилой, которые тщательно охраняют остров от постороннего вмешательства. Но в полнолуние Зак контактирует с водой из лунного пруда и обретает магические силы. Проснувшись утром дома, он обнаружил вместо ног плавник, а также способность управлять водой. Теперь Зак приносит немало сюрпризов для русалок с острова Мако… Русалки теперь должны стать людьми и найти Зака, чтобы отобрать его магические силы, или их исключат из сообщества русалок.
3 сезон...
s3e01. Визит с Востока
s3e02. Не поверишь, пока не увидишь
s3e03. Рецепт успеха
s3e04. Прочистка
s3e05. Магическая шкатулка
s3e06. Новые Начинания

Файл:
Формат: MKV
Качество: WEBRip 720p
Видео: MPEG-AVC, 1280x720, 25,000 кадр/с, ~ 2 231 Кбит/с
Аудио: 48,0 КГц, AC3, 2.0, 192 Кбит/с
Продолжительность: 6 x ~ 00:24:22
Перевод: Любительский многоголосый (Alternative Production)
Субтитры: нет
s3e01. Визит с Востока. W-720p.-merci-.mkv
Формат : Matroska
Версия формата : Version 2
Размер файла : 431 Мбайт
Продолжительность : 24 м.
Режим общего битрейта : Переменный
Общий поток : 2472 Кбит/сек
Название фильма : Mako Mermaids / 3 сезон / 2016 / -merci-
Дата кодирования : UTC 2016-06-30 07:40:38
Программа кодирования : mkvmerge v5.8.0 ('No Sleep / Pillow') built on Sep 2 2012 15:37:04
Библиотека кодирования : libebml v1.2.3 + libmatroska v1.3.0
Видео
Идентификатор : 1
Формат : AVC
Формат/Информация : Advanced Video Codec
Профиль формата : Main@L3.1
Параметр CABAC формата : Да
Параметр ReFrames формата : 2 кадра
Параметр GOP формата : M=1, N=24
Идентификатор кодека : V_MPEG4/ISO/AVC
Продолжительность : 24 м.
Вид битрейта : Переменный
Битрейт : 2231 Кбит/сек
Максимальный битрейт : 3456 Кбит/сек
Ширина : 1280 пикселей
Высота : 720 пикселей
Соотношение сторон : 16:9
Режим частоты кадров : Постоянный
Частота кадров : 25,000 кадров/сек
Цветовое пространство : YUV
Субдискретизация насыщенности : 4:2:0
Битовая глубина : 8 бит
Тип развёртки : Прогрессивная
Бит/(Пиксели*Кадры) : 0.097
Размер потока : 389 Мбайт (90%)
Заголовок : s3e01. Визит с Востока. 720p.x264.-merci-
Язык : English
Default : Да
Forced : Нет
Аудио
Идентификатор : 2
Формат : AC-3
Формат/Информация : Audio Coding 3
Расширение режима : CM (complete main)
Параметр Endianness формата : Big
Идентификатор кодека : A_AC3
Продолжительность : 24 м.
Вид битрейта : Постоянный
Битрейт : 192 Кбит/сек
Каналы : 2 канала
Расположение каналов : Front: L R
Частота : 48,0 КГц
Частота кадров : 31,250 кадров/сек (1536 spf)
Метод сжатия : С потерями
Размер потока : 33,5 Мбайт (8%)
Заголовок : MVO (Alt Pro)
Язык : Russian
Default : Да
Forced : Нет


Релиз от:
Автор релиза:



   Похожие торренты   Торрент   Размер 
В этой теме нет новых непрочитанных сообщений. Тайны острова Мако / Mako Mermaids [s03] (2016) WEBRip 720p от ExKinoRay | Alt Pro

37 | 26

6.67 ГБ

В этой теме нет новых непрочитанных сообщений. Тайны острова Мако / Mako Mermaids [S03] (2016) WEBRip 720p | RUS SUB

16 | 8

5.67 ГБ

В этой теме нет новых непрочитанных сообщений. Тайны острова Мако / Mako Mermaids [02х01-05 из 26] (2015) WEBRip | Alternative Production

86 | 15

1.87 ГБ

В этой теме нет новых непрочитанных сообщений. Тайны острова Мако / Mako Mermaids [02х01-06 из 26] (2015) WEBRip | Alternative Production

28 | 15

2.25 ГБ

В этой теме нет новых непрочитанных сообщений. Тайны острова Мако / Mako Mermaids [02х01-07 из 26] (2015) WEBRip | Alternative Production

12 | 6

2.61 ГБ

В этой теме нет новых непрочитанных сообщений. Тайны острова Мако / Mako Mermaids [S02] (2015) WEB-DL 720p от -merci- | Disney

22 | 10

19.27 ГБ

В этой теме нет новых непрочитанных сообщений. Тайны острова Мако / Mako Mermaids [S02] (2015) WEB-DLRip | Disney

178 | 32

10.53 ГБ




Вы не можете начинать темы
Вы не можете отвечать на сообщения
Вы не можете редактировать свои сообщения
Вы не можете удалять свои сообщения
Вы не можете добавлять вложения

Перейти:  
Для Мосгорсуда, Роскомнадзора и рекламодателей: mosgorsud-torrent[собачка]yandex.ru
 Вход
ppkBB3cker v.2 © 2008-2014 @ PPK
[ Time : 5.863s | 17 Queries | GZIP : Off ]

Торрент трекер RUTOR.IN, Не можете зайти на rutor.org? Какой новый адрес рутор? Какое зеркало рутор? Не работает rutor.org и зеркала? Тогда наш торрент специально для вас. Rutor.in неофициальное зеркало rutor. В случае если у Вас заблокирован rutor или вдруг Вы не можете на него зайти, то Вы без труда сможете скачать бесплатно и без рекламы последние новинки кино, игр, сериалов и прочего у нас, на Rutor.in. Не нужно использовать прокси, чтобы зайти на рутор, достаточно воспользоваться нашим ресурсом. Все новые фильмы, игры, сериалы, книги и музыка за 2013 и 2014 годы через торрент бесплатно. Скачивайте фильмы в хорошем качестве, игры для пк, xbox, playstation без регистрации. У нас вы найдете новые Зарубежные сериалы и Русские сериалы 2013, 2014, 2015 годов. Оставайтесь с нами, качайте любимые фильмы, игры, сериалы, книги и музыку.