img image001 image001 image001 image001 image001 image001 image001 image001 image001 image001 image001 image001 image001 image001 image001

Planets Sun Sun Sun
Статистика раздачи
Автор: Nickolas3434 | Размер: 1.87 ГБ | Добавлен: 02 июл 2016
Раздают: 1    Качают: 7
Скачать торрент
Скачать торрент
Описание торрента

СообщениеДобавлено: 02 июл 2016 


Умник / Cleverman
Страна: Австралия Новая Зеландия
Производство: Goalpost Pictures, Pukeko Pictures
Год выпуска: 2016
Жанр: фантастика
Сезон: 1
Серии: 1-5 (из 6)
Продолжительность: х ~00:48:00
Режиссеры: Уэйн Блэр, Леа Пурселл
Авторы сценария: Джейн Аллен, Джон Белл, Джонатан Гэвин
В ролях: Тисан Тоуни, Хантер Пейдж-Лошар, Роб Коллинз, Дебора Мэйлман, Райан Корр, Тасма Уолтон, Джада Альбертс, Джек Чарльз, Рондда Финдлтон
Описание: Сюжет сериала показывает довольно мрачное будущее. Загадочные создания из страниц книжных мифов проникли в наш реальный мир, и покорили его себе. Теперь люди объединяются в группу и вынуждены искать убежище для того, что бы защититься от врага. Главные герои два брата, которые уже очень давно практически не общаются и являются врагами, но общее горе заставляет их объединиться...

Перевод: Любительский (двухголосый, закадровый) | КОЛДФИЛЬМ
Субтитры: нет

Качество: HDTVRip
Формат: AVI
Видео кодек: XviD
Аудио кодек: МР3
Видео: 720x400 (16:9), 30.000 fps, XviD ~835 kbps avg
Аудио: 48.0 kHz, MPEG Layer 3, 2 ch, ~128.00 kbps avg
Дата премьеры (мир): 2 июня 2016
ПРИМЕЧАНИЕ: ПРИСУТСТВУЕТ РЕКЛАМА!
General
Format : AVI
Format/Info : Audio Video Interleave
Overall bit rate : 978 Kbps
Writing application : Lavf57.25.100
Video
ID : 0
Format : xvid
Codec ID : xvid
Bit rate : 835 Kbps
Width : 720 pixels
Height : 400 pixels
Display aspect ratio : 16:9
Frame rate : 30.000 fps
Bits/(Pixel*Frame) : 0.097
Stream size : 6.62 MiB (85%)
Audio
ID : 1
Format : MPEG Audio
Format version : Version 1
Format profile : Layer 3
Mode : Joint stereo
Mode extension : MS Stereo
Codec ID : 55
Codec ID/Hint : MP3
Bit rate mode : Constant
Bit rate : 128 Kbps
Channel(s) : 2 channels
Sampling rate : 48.0 KHz
Compression mode : Lossy
Stream size : 1.01 MiB (13%)
Alignment : Aligned on interleaves
Interleave, duration : 24 ms (0.72 video frame)
Interleave, preload duration : 24 ms




   Похожие торренты   Торрент   Размер 
В этой теме нет новых непрочитанных сообщений. Умник / Cleverman [01х01 из 06] (2016) HDTVRip | ColdFilm

89 | 4

394.14 МБ

В этой теме нет новых непрочитанных сообщений. Умник / Cleverman [01х01 из 06] (2016) HDTVRip 720р | ColdFilm

1 | 0

1.17 ГБ

В этой теме нет новых непрочитанных сообщений. Умник / Cleverman [01х01-05 из 06] (2016) HDTVRip 720р | ColdFilm

0 | 2

5.93 ГБ

В этой теме нет новых непрочитанных сообщений. Умник / Cleverman [S01] (2016) HDTVRip | ColdFilm

63 | 21

2.39 ГБ

В этой теме нет новых непрочитанных сообщений. Умник / Cleverman [S01] (2016) HDTVRip 720р | ColdFilm

18 | 4

7.11 ГБ

В этой теме нет новых непрочитанных сообщений. Умник / Cleverman [01х01-02 из 06] (2016) WEB-DL 720p | KinoView

6 | 1

3.25 ГБ

В этой теме нет новых непрочитанных сообщений. Умник / Cleverman [01х01-03 из 06] (2016) WEB-DL 720p | KinoView

16 | 1

4.88 ГБ




Вы не можете начинать темы
Вы не можете отвечать на сообщения
Вы не можете редактировать свои сообщения
Вы не можете удалять свои сообщения
Вы не можете добавлять вложения

Перейти:  
Для Мосгорсуда, Роскомнадзора и рекламодателей: mosgorsud-torrent[собачка]yandex.ru
 Вход
ppkBB3cker v.2 © 2008-2014 @ PPK
[ Time : 0.036s | 15 Queries | GZIP : Off ]

Торрент трекер RUTOR.IN, Не можете зайти на rutor.org? Какой новый адрес рутор? Какое зеркало рутор? Не работает rutor.org и зеркала? Тогда наш торрент специально для вас. Rutor.in неофициальное зеркало rutor. В случае если у Вас заблокирован rutor или вдруг Вы не можете на него зайти, то Вы без труда сможете скачать бесплатно и без рекламы последние новинки кино, игр, сериалов и прочего у нас, на Rutor.in. Не нужно использовать прокси, чтобы зайти на рутор, достаточно воспользоваться нашим ресурсом. Все новые фильмы, игры, сериалы, книги и музыка за 2013 и 2014 годы через торрент бесплатно. Скачивайте фильмы в хорошем качестве, игры для пк, xbox, playstation без регистрации. У нас вы найдете новые Зарубежные сериалы и Русские сериалы 2013, 2014, 2015 годов. Оставайтесь с нами, качайте любимые фильмы, игры, сериалы, книги и музыку.
cron