img image001 image001 image001 image001 image001 image001 image001 image001 image001 image001 image001 image001 image001 image001 image001

Planets Sun Sun Sun
Статистика раздачи
Автор: Nickolas3434 | Размер: 4.7 ГБ | Добавлен: 07 июл 2016
Раздают: 33    Качают: 773
Скачать торрент
Скачать торрент
Описание торрента

СообщениеДобавлено: 07 июл 2016 


Информация о фильме
Название: Наручники
Оригинальное название: Cuffs
Год выхода: 2015
Жанр: драма, криминал
Режиссер: Кирон Хоукс, Энтони Филипсон, Ник Роулэнд
В ролях: Аманда Аббингтон, Карен Брайсон, Алекс Картер, Шон Дули, Робби Ги, Эндрю Хоули, Jacob Ifan, Элинор Мацуура, Пол Рэди, Питер Салливан
О фильме:
Сериал о копах-новобранцах, которые в своей работе сталкиваются с наркоманами, самоубийцами, насилием в семье, а также расовой и сексуальной дискриминацией в обществе и в правоохранительных органах.

Страна: Великобритания
Студия: Tiger Aspect Productions
Продолжительность: ~00:56:00 серия
Перевод: Любительский двухголосый [kiitos]
Файл
Кодек: XviD
Качество: HDTVRip
Видео: 704x400, 1 281 Kbps, 25.000 fps
Звук: MP3, 192 Kbps (2 ch)
Семпл

General
Complete name : /home/roma/Відео/Наручники (Cuffs)/Cuffs.s01e01.kiitos.avi
Format : AVI
Format/Info : Audio Video Interleave
File size : 602 MiB
Duration : 56mn 43s
Overall bit rate : 1 483 Kbps
Writing application : VirtualDubMod 1.5.10.2 (build 2540/release)
Writing library : VirtualDubMod build 2540/release
Video
ID : 0
Format : MPEG-4 Visual
Format profile : Advanced Simple@L5
Format settings, BVOP : 2
Format settings, QPel : No
Format settings, GMC : No warppoints
Format settings, Matrix : Default (MPEG)
Codec ID : XVID
Codec ID/Hint : XviD
Duration : 56mn 43s
Bit rate : 1 281 Kbps
Width : 720 pixels
Height : 400 pixels
Display aspect ratio : 16:9
Frame rate : 25.000 fps
Color space : YUV
Chroma subsampling : 4:2:0
Bit depth : 8 bits
Scan type : Progressive
Compression mode : Lossy
Bits/(Pixel*Frame) : 0.178
Stream size : 520 MiB (86%)
Writing library : XviD 73
Audio
ID : 1
Format : MPEG Audio
Format version : Version 1
Format profile : Layer 3
Mode : Joint stereo
Codec ID : 55
Codec ID/Hint : MP3
Duration : 56mn 43s
Bit rate mode : Constant
Bit rate : 192 Kbps
Channel(s) : 2 channels
Sampling rate : 48.0 KHz
Compression mode : Lossy
Stream size : 77.9 MiB (13%)
Alignment : Aligned on interleaves
Interleave, duration : 40 ms (1.00 video frame)
Interleave, preload duration : 504 ms

Релиз от: kiitos



   Похожие торренты   Торрент   Размер 
В этой теме нет новых непрочитанных сообщений. Наручники / Cuffs [01x01-07 из 08] (2015) HDTVRip от kiitos | L2

0 | 0

4.11 ГБ

В этой теме нет новых непрочитанных сообщений. Наручники / Cuffs [S01] (2015) HDTVRip 720p | kiitos | L2

6 | 7

8.96 ГБ

В этой теме нет новых непрочитанных сообщений. Агент Икс / Agent X [01x01-02 из 10] (2015) HDTVRip | kiitos

134 | 104

993.64 МБ

В этой теме нет новых непрочитанных сообщений. Призраки Энфилда / Enfield Haunting [S01] (2015) HDTVRip | kiitos

308 | 80

1.47 ГБ

В этой теме нет новых непрочитанных сообщений. Смерть в раю, 4 сезон 7-8 серии из 8 / Death in Paradise [Kiitos] (Олрик Райли, Роджер Голдби, Пол Харрисон) [2015, триллер, драма, криминал, детектив, HDTVRip, L2]

22 | 13

1.18 ГБ

В этой теме нет новых непрочитанных сообщений. Менталист / The Mentalist [07x08] (2015) WEB-DL 720p | Kiitos

44 | 3

856.03 МБ

В этой теме нет новых непрочитанных сообщений. Менталист / The Mentalist [07x11] (2015) WEB-DL 720p | Kiitos

118 | 5

848.84 МБ




Вы не можете начинать темы
Вы не можете отвечать на сообщения
Вы не можете редактировать свои сообщения
Вы не можете удалять свои сообщения
Вы не можете добавлять вложения

Перейти:  
Для Мосгорсуда, Роскомнадзора и рекламодателей: mosgorsud-torrent[собачка]yandex.ru
 Вход
ppkBB3cker v.2 © 2008-2014 @ PPK
[ Time : 0.049s | 15 Queries | GZIP : Off ]

cron