img image001 image001 image001 image001 image001 image001 image001 image001 image001 image001 image001 image001 image001 image001 image001

Planets Sun Sun Sun
Статистика раздачи
Автор: Nickolas3434 | Размер: 1.79 ГБ | Добавлен: 07 июл 2016
Раздают: 61    Качают: 1
Скачать торрент
Скачать торрент
Описание торрента

СообщениеДобавлено: 07 июл 2016 



Информация о фильме
Название: Государственная граница. Фильм 12. Ложная цель
Год выхода: 2015
Жанр: Историко-приключенческий телесериал
Режиссер: Сергей Талыбов
В ролях: Дмитрий Ратомский, Марина Денисова, Александр Подобед, Андрей Карако, Игорь Сигов, Сергей Чекерес, Виталий Новиков, Марк Нестер
О фильме:
Майор пограничной службы Константин Кудин служит на заставе, где погиб его отец. Преданный, проницательный и честный командир, он регулярно отказывается от повышений, чем вызывает неудовольствие своей супруги. Во время обхода границы Кудин обнаруживает камень со шпионским оборудованием и срывает планы сразу нескольких групп злоумышленников: местного дельца Тюрина, промышляющего контрабандой наркотиков, его покровителя из числа пограничников и группы террористов, планирующих теракт в Минске. Выполняя свой долг, Кудин не только рискует собственной жизнью, но и подставляет под удар членов своей семьи...
Доп. информация:
Автор сценария: Виктор Лобкович, Олег Сухамера
Оператор-постановщик: Максим Куровский
Художник-постановщик: Андрей Толстик
Композитор: Борис Ланьков
Запись потока *.ts с наземного цифрового телеканала "СТВ", ремукс в *.mkv программой VideoReDo.
Благодарность: за помощь с недостающим материалом Bartimeyse и PavelDAS. Обоим большое спасибо!
Страна: Республика Беларусь
Студия: Беларусьфильм
Количество серий: 2
Продолжительность: 00:50:46 + 00:49:53
Перевод: не требует
Файл
Кодек: AVC (H264)
Качество: DVB
Видео 01: AVC (H264), 720x576 (4:3), 25 fps, 2 242 Kbps
Видео 02: AVC (H264), 720x576 (4:3), 25 fps, 2 251 Kbps
Звук: MP2, 256 kbps, 2 channels, 48 kHz
Семпл
Код:
General
Unique ID                      : 117084934362544258923717879136358491632 (0x5815BCF4F1946623FC50ABBFF51BE5F0)
Complete name                  : D:Новая  земля 2Художественные фильмыГосударственная границаГосударственная граница. Фильм 12. Ложная цель (2015)Государственная граница. Фильм 12. Ложная цель. 01 (2015).mkv
Format                         : Matroska
Format version                 : Version 2
File size                      : 925 MiB
Duration                       : 50mn 46s
Overall bit rate               : 2 548 Kbps
Writing application            : Lavf52.64.2
Writing library                : Lavf52.64.2
Video
ID                             : 1
Format                         : AVC
Format/Info                    : Advanced Video Codec
Format profile                 : Main@L3.0
Format settings, CABAC         : Yes
Format settings, ReFrames      : 4 frames
Format settings, GOP           : M=4, N=24
Codec ID                       : V_MPEG4/ISO/AVC
Duration                       : 50mn 46s
Bit rate                       : 2 242 Kbps
Width                          : 720 pixels
Height                         : 576 pixels
Display aspect ratio           : 4:3
Original display aspect ratio  : 4:3
Frame rate mode                : Constant
Frame rate                     : 25.000 fps
Standard                       : PAL
Color space                    : YUV
Chroma subsampling             : 4:2:0
Bit depth                      : 8 bits
Scan type                      : MBAFF
Scan order                     : Top Field First
Bits/(Pixel*Frame)             : 0.216
Stream size                    : 814 MiB (88%)
Default                        : Yes
Forced                         : No
Color primaries                : BT.601 PAL
Transfer characteristics       : BT.470 System B, BT.470 System G
Matrix coefficients            : BT.601
Color range                    : Limited
Audio
ID                             : 2
Format                         : MPEG Audio
Format version                 : Version 1
Format profile                 : Layer 2
Codec ID                       : A_MPEG/L2
Codec ID/Hint                  : MP2
Duration                       : 50mn 46s
Bit rate mode                  : Constant
Bit rate                       : 256 Kbps
Channel(s)                     : 2 channels
Sampling rate                  : 48.0 KHz
Compression mode               : Lossy
Stream size                    : 93.0 MiB (10%)
Language                       : English
Default                        : Yes
Forced                         : No


Код:
General
Unique ID                      : 85398269278795993408464083822478081789 (0x403F1BC01F0ADFEF7D15FDB695CFBEFD)
Complete name                  : D:Новая  земля 2Художественные фильмыГосударственная границаГосударственная граница. Фильм 12. Ложная цель (2015)Государственная граница. Фильм 12. Ложная цель. 02 (2015).mkv
Format                         : Matroska
Format version                 : Version 2
File size                      : 913 MiB
Duration                       : 49mn 52s
Overall bit rate               : 2 558 Kbps
Writing application            : Lavf52.64.2
Writing library                : Lavf52.64.2
Video
ID                             : 1
Format                         : AVC
Format/Info                    : Advanced Video Codec
Format profile                 : Main@L3.0
Format settings, CABAC         : Yes
Format settings, ReFrames      : 4 frames
Format settings, GOP           : M=4, N=24
Codec ID                       : V_MPEG4/ISO/AVC
Duration                       : 49mn 52s
Bit rate                       : 2 251 Kbps
Width                          : 720 pixels
Height                         : 576 pixels
Display aspect ratio           : 4:3
Original display aspect ratio  : 4:3
Frame rate mode                : Constant
Frame rate                     : 25.000 fps
Standard                       : PAL
Color space                    : YUV
Chroma subsampling             : 4:2:0
Bit depth                      : 8 bits
Scan type                      : MBAFF
Scan order                     : Top Field First
Bits/(Pixel*Frame)             : 0.217
Stream size                    : 803 MiB (88%)
Default                        : Yes
Forced                         : No
Color primaries                : BT.601 PAL
Transfer characteristics       : BT.470 System B, BT.470 System G
Matrix coefficients            : BT.601
Color range                    : Limited
Audio
ID                             : 2
Format                         : MPEG Audio
Format version                 : Version 1
Format profile                 : Layer 2
Codec ID                       : A_MPEG/L2
Codec ID/Hint                  : MP2
Duration                       : 49mn 52s
Bit rate mode                  : Constant
Bit rate                       : 256 Kbps
Channel(s)                     : 2 channels
Sampling rate                  : 48.0 KHz
Compression mode               : Lossy
Stream size                    : 91.3 MiB (10%)
Language                       : English
Default                        : Yes
Forced                         : No






   Похожие торренты   Торрент   Размер 
В этой теме нет новых непрочитанных сообщений. Государственная граница. Фильм 11. Смертельный улов (2014) DVB от AND03AND

109 | 14

1.71 ГБ

В этой теме нет новых непрочитанных сообщений. Государственная граница [S02] (2014-2015) SATRip-AVC от Files-x

191 | 27

5.3 ГБ

В этой теме нет новых непрочитанных сообщений. Государственная граница [02x03-04 из 08] (2014-2015) SATRip от Files-x

10 | 0

4.69 ГБ

В этой теме нет новых непрочитанных сообщений. Государственная граница [01-08 из 08] (1980-1988) DVDRip от -=HD-NET=-

1397 | 375

16.06 ГБ

В этой теме нет новых непрочитанных сообщений. Государственная Граница [1-8] (1980-88) DVDRip by гаврила

95 | 41

17.23 ГБ

В этой теме нет новых непрочитанных сообщений. Государственная граница (1980-1988) DVDRip-AVC от ExKinoRay

105 | 58

23.76 ГБ

В этой теме нет новых непрочитанных сообщений. Государственная граница (1980-1988) DVDRip-AVC от Zarraza

47 | 27

19.68 ГБ




Вы не можете начинать темы
Вы не можете отвечать на сообщения
Вы не можете редактировать свои сообщения
Вы не можете удалять свои сообщения
Вы не можете добавлять вложения

Перейти:  
Для Мосгорсуда, Роскомнадзора и рекламодателей: mosgorsud-torrent[собачка]yandex.ru
 Вход
ppkBB3cker v.2 © 2008-2014 @ PPK
[ Time : 0.049s | 17 Queries | GZIP : Off ]

cron