img image001 image001 image001 image001 image001 image001 image001 image001 image001 image001 image001 image001 image001 image001 image001

Planets Sun Sun Sun
Статистика раздачи
Автор: Nickolas3434 | Размер: 12.3 ГБ | Добавлен: 08 июл 2016
Раздают: 34    Качают: 41
Скачать торрент
Скачать торрент
Описание торрента

СообщениеДобавлено: 08 июл 2016 


Информация о фильме
Название: Агенты Щ.И.Т.
Оригинальное название: Marvel's Agents of S.H.I.E.L.D.
Год выхода: 2013
Жанр: Боевик, фантастика
Режиссер: Джосс Уидон
В ролях: Кларк Грегг, Минг-На, Бретт Далтон, Хлоя Беннет, Йен де Кестекер, Элизабет Хенстридж, Дж. Аугуст Ричардс, Б.Дж. Бритт, Дэвид Конрад, Билл Пэкстон, Рут Негга, Саффрон Берроуз
О фильме:
Действия сериала разворачиваются после событий в фильме "Мстители". Агент Фил Колсон возвращается в правоохранительную организацию под названием Щ.И.Т. Собрав небольшую команду профессионалов, он начинает работу над новыми делами, которые порой бывают очень странными. В команде Щ.И.Т.а мы увидим довольно-таки прямолинейного агента - Гранта, который является экспертом по шпионаже и боевым действиям; так же числе специалист по восточным единоборствам и пилот - агент Мелинда Мэй; гениальные ученые-социофобы Джемма Симмонс и Лео Фитц; недавно рекрутированный хакер - Скай. Сериал снятый по комиксам от Marvel's "Агенты Щ.И.Т.а" это настоящее эпическое приключение, демонстрирующее чудо человеческого духа и надежду на лучшее. Вы погрузитесь в мир супергероев, в мир неизведанного, в мир пришельцев, зрелищ и невероятных историй. Телесериал "Агенты Щ.И.Т.а" показывает нам не людей со сверхспособностями, а людей с огромной силой воли и невероятной храбростью, ведь несмотря на отсутствие каких-либо необычайных способностей, эти агенты рвутся в бой и спасают весь мир от злодеев и гибели. Ведь каждый из агентов по отдельности это сила и ум, ну а вместе они способны спасти всю планету.

Сезон 1
01. Пилот / Pilot
02. 0-8-4 / 0-8-4
03. Ценный груз / The Asset
04. Глаз-алмаз / Eye-Spy
05. Девушка в цветастом платье / Girl in the Flower Dress
06. ФЗЗТ / FZZT
07. Центр / The Hub
08. Колодец / The Well
09. Восстановление / Repairs
10. Мост / The Bridge
11. Волшебное место / The Magical Place
12. Семена / Seeds
13. П.У.Т.И. / T.R.A.C.K.S.
14. Т.А.И.Т.И. / T.A.H.I.T.I.
15. Безотказные / Yes Men
16. Конец начала / End of the Beginning
17. Поворот, поворот, поворот / Turn, Turn, Turn
18. Провидение / Providence
19. Свет во тьме / The Only Light in the Darkness
20. Ничего личного / Nothing Personal
21. Сброд и шатание / Ragtag
22. Начало конца / Beginning of the End
Сезон 2
01. Тени /Shadows
02. Нет покоя голове в венце /Heavy Is the Head
03. Как завоевать друзей и оказать влияние на людей /Making Friends and Influencing People
04. Лицом к лицу с врагом /Face My Enemy
05. Курица в волчьей норе /A Hen in the Wolfhouse
06. Дом с трещиной /A Fractured House
07. Надписи на стене /The Writing on the Wall
08. То, что мы хороним /The Things We Bury
09. Всяк сюда входящий /Ye Who Enter Here
10. Чем они станут /What They Become
11. Отголоски /Aftershocks
12. Кто ты на самом деле /Who You Really Are
13. Одна из нас /One of Us
14. Любовь во времена Гидры /Love in the Time of Hydra
15. Когда одна дверь закрывается /One Door Closes
16. Посмертие /Afterlife
17. Мелинда /Melinda
18. Заклятый друг моего врага /Frenemy of My Enemy
19. Грязные полдюжины /The Dirty Half Dozen
20. Шрамы /Scars
21. S.O.S. Часть 1 /S.O.S. Part 1
22. S.O.S. Часть 2 /S.O.S. Part 2
Сезон 3
01. Laws of Nature / Законы природы
02. Purpose in the Machine / Предназначение машины
03. A Wanted (In)human / Разыскивается (не)человек
04. Devils You Know / Демоны, которых ты знаешь
05. 4,722 Hours / 4 722 часа
06. Among Us Hide… / Скрывается среди нас
07. Chaos Theory / Теория хаоса
08. Many Heads, One Tale / Много голов — один хвост
09. Closure / Примирение с утратой
10. Maveth / Мавэс
11. Bouncing Back / Реабилитация
12. The Inside Man / Информатор
13. Parting Shot / Прощальный залп
14. Watchdogs / Надзиратели
15. Spacetime / Пространство-время
16. Paradise Lost / Потерянный рай
17. The Team / Команда
18. The Singularity / Сингулярность
19. Failed Experiments / Неудачные эксперименты
20. Emancipation / Избавление
21. Absolution / Прощение
22. Ascension / Вознесение

Страна: США
Студия: ABC Studios, Marvel Television
Продолжительность: 66 x ~ 00:42:00
Перевод: Дублированный [Невафильм]
Файл
Формат: MP4
Качество: HDRip, WEB-DLRip | КПК
Видео: MPEG-4 AVC (x264), 640x360, ~500 kbps, 23.976 fps
Аудио: AAC LC, 48.0 KHz, 2 ch, 128 Kbps
Субтитры: Нет
Семпл

Complete name : E:KinoAgenty.Shh.I.T.AVC.WEB-DLRip.KPK.NF.GeneralfilmAgenty.Shh.I.T.S02.2014-2015.AVC.HDRip.KPK.NF.GeneralfilmAgenty.Shh.I.T.s02e17.2015.AVC.HDRip.KPK.NF.Generalfilm.mp4
Format : MPEG-4
Codec ID : M4V
File size : 187 MiB
Duration : 41mn 12s
Overall bit rate mode : Variable
Overall bit rate : 634 Kbps
Writing application : Lavf53.19.0
Video
ID : 1
Format : AVC
Format/Info : Advanced Video Codec
Format profile : High@L4.1
Format settings, CABAC : Yes
Format settings, ReFrames : 8 frames
Codec ID : avc1
Codec ID/Info : Advanced Video Coding
Duration : 41mn 12s
Bit rate : 500 Kbps
Width : 640 pixels
Height : 360 pixels
Display aspect ratio : 16:9
Frame rate mode : Constant
Frame rate : 23.976 fps
Color space : YUV
Chroma subsampling : 4:2:0
Bit depth : 8 bits
Scan type : Progressive
Bits/(Pixel*Frame) : 0.091
Stream size : 147 MiB (79%)
Writing library : x264 core 130 r2273 b3065e6
Encoding settings : cabac=1 / ref=8 / deblock=1:-2:-2 / analyse=0x3:0x133 / me=umh / subme=10 / psy=1 / psy_rd=1.00:0.00 / mixed_ref=1 / me_range=24 / chroma_me=1 / trellis=2 / 8x8dct=1 / cqm=0 / deadzone=21,11 / fast_pskip=1 / chroma_qp_offset=-2 / threads=12 / lookahead_threads=2 / sliced_threads=0 / nr=0 / decimate=0 / interlaced=0 / bluray_compat=0 / constrained_intra=0 / bframes=8 / b_pyramid=2 / b_adapt=2 / b_bias=0 / direct=3 / weightb=1 / open_gop=0 / weightp=2 / keyint=240 / keyint_min=121 / scenecut=40 / intra_refresh=0 / rc_lookahead=40 / rc=2pass / mbtree=1 / bitrate=500 / ratetol=1.0 / qcomp=0.60 / qpmin=0 / qpmax=69 / qpstep=4 / cplxblur=20.0 / qblur=0.5 / ip_ratio=1.40 / aq=1:1.00
Audio
ID : 2
Format : AAC
Format/Info : Advanced Audio Codec
Format profile : LC
Codec ID : 40
Duration : 41mn 12s
Bit rate mode : Variable
Bit rate : 128 Kbps
Channel(s) : 2 channels
Channel positions : Front: L R
Sampling rate : 48.0 KHz
Compression mode : Lossy
Stream size : 37.7 MiB (20%)

Релиз от:



   Похожие торренты   Торрент   Размер 
В этой теме нет новых непрочитанных сообщений. Агенты Щ.И.Т. / Marvel's Agents of S.H.I.E.L.D. [S01] (2013-2014) WEB-DLRip от Generalfilm | Невафильм

79 | 32

13.46 ГБ

В этой теме нет новых непрочитанных сообщений. Агенты Щ.И.Т. / Marvel's Agents of S.H.I.E.L.D. [S01] (2013-2014) WEB-DLRip от Generalfilm | КПК | Невафильм

131 | 33

4.13 ГБ

В этой теме нет новых непрочитанных сообщений. Агенты Щ.И.Т. / Marvel's Agents of S.H.I.E.L.D. [04х01-04 из 22] (2016) WEB-DLRip | Невафильм

0 | 0

1.96 ГБ

В этой теме нет новых непрочитанных сообщений. Агенты Щ.И.Т. / Marvel's Agents of S.H.I.E.L.D. [S01] (2013-2014) WEB-DLRip | Невафильм

152 | 76

10.73 ГБ

В этой теме нет новых непрочитанных сообщений. Агенты Щ.И.Т. / Marvel's Agents of S.H.I.E.L.D. [01х01-08 из 22] (2013-2014) WEB-DLRip | D | Невафильм

18 | 29

3.9 ГБ

В этой теме нет новых непрочитанных сообщений. Агенты Щ.И.Т. / Marvel's Agents of S.H.I.E.L.D. [01х01-14 из 22] (2013-2014) WEB-DLRip | Невафильм

12 | 24

6.83 ГБ

В этой теме нет новых непрочитанных сообщений. Агенты Щ.И.Т. / Marvel's Agents of S.H.I.E.L.D. [01х01-20 из 22] (2013-2014) WEB-DLRip | Невафильм

20 | 24

9.76 ГБ




Вы не можете начинать темы
Вы не можете отвечать на сообщения
Вы не можете редактировать свои сообщения
Вы не можете удалять свои сообщения
Вы не можете добавлять вложения

Перейти:  
Для Мосгорсуда, Роскомнадзора и рекламодателей: mosgorsud-torrent[собачка]yandex.ru
 Вход
ppkBB3cker v.2 © 2008-2014 @ PPK
[ Time : 0.041s | 14 Queries | GZIP : Off ]

Торрент трекер RUTOR.IN, Не можете зайти на rutor.org? Какой новый адрес рутор? Какое зеркало рутор? Не работает rutor.org и зеркала? Тогда наш торрент специально для вас. Rutor.in неофициальное зеркало rutor. В случае если у Вас заблокирован rutor или вдруг Вы не можете на него зайти, то Вы без труда сможете скачать бесплатно и без рекламы последние новинки кино, игр, сериалов и прочего у нас, на Rutor.in. Не нужно использовать прокси, чтобы зайти на рутор, достаточно воспользоваться нашим ресурсом. Все новые фильмы, игры, сериалы, книги и музыка за 2013 и 2014 годы через торрент бесплатно. Скачивайте фильмы в хорошем качестве, игры для пк, xbox, playstation без регистрации. У нас вы найдете новые Зарубежные сериалы и Русские сериалы 2013, 2014, 2015 годов. Оставайтесь с нами, качайте любимые фильмы, игры, сериалы, книги и музыку.