img image001 image001 image001 image001 image001 image001 image001 image001 image001 image001 image001 image001 image001 image001 image001

Planets Sun Sun Sun
Статистика раздачи
Автор: PriZraK | Размер: 2.43 ГБ | Добавлен: 12 июл 2016
Раздают: 12    Качают: 35
Скачать торрент
Скачать торрент
Описание торрента

СообщениеДобавлено: 12 июл 2016 


Информация о фильме
Название: Сосны (Уэйворд Пайнс)
Оригинальное название: Wayward Pines
Год выхода: 2016
Жанр: фантастика, триллер, драма, детектив
Режиссер: Джефф Т. Томас, Зал Батманглидж, Тим Хантер
В ролях: Мэтт Диллон, Хоуп Дэвис, Шаннин Соссамон, Тоби Джонс, Том Стивенс, Чарли Тахэн, Шиван Фэллон, Карла Гуджино, Мелисса Лео, Джейсон Патрик
О фильме:
Агент секретной службы Итан Берк приезжает в пасторальный городок Уэйуорд Пайнс в Айдахо, чтобы найти двух пропавших фэбээровцев. Но расследование вместо ответов приносит лишь новые вопросы. Что же происходит в Уэйуорд Пайнс?

Страна: США
Продолжительность: ~00:45:00 серия
Перевод: Любительский многоголосый [HamsterStudio]
Файл
Кодек: XviD
Качество: WEB-DLRip
Видео: 989 Кбит/сек, 720x400, 23.976 кадр/сек
Звук: MP3, 128 Кбит/сек (2 ch)
Семпл

Релиз от: HamsterStudio
General
Complete name : /home/roma/Відео/Сосны - Уэйворд Пайнс (Wayward Pines)/Wayward.Pines.S02E01.WEB-DLRip.HamsterStudio.avi
Format : AVI
Format/Info : Audio Video Interleave
File size : 356 MiB
Duration : 44mn 11s
Overall bit rate : 1 126 Kbps
Writing application : VirtualDubMod 1.5.10.2 (build 2540/release)
Writing library : VirtualDubMod build 2540/release
Video
ID : 0
Format : MPEG-4 Visual
Format profile : Advanced Simple@L5
Format settings, BVOP : 2
Format settings, QPel : No
Format settings, GMC : No warppoints
Format settings, Matrix : Default (H.263)
Muxing mode : Packed bitstream
Codec ID : XVID
Codec ID/Hint : XviD
Duration : 44mn 11s
Bit rate : 989 Kbps
Width : 720 pixels
Height : 400 pixels
Display aspect ratio : 16:9
Frame rate : 23.976 (24000/1001) fps
Color space : YUV
Chroma subsampling : 4:2:0
Bit depth : 8 bits
Scan type : Progressive
Compression mode : Lossy
Bits/(Pixel*Frame) : 0.143
Stream size : 313 MiB (88%)
Writing library : XviD 66
Audio
ID : 1
Format : MPEG Audio
Format version : Version 1
Format profile : Layer 3
Mode : Joint stereo
Mode extension : MS Stereo
Codec ID : 55
Codec ID/Hint : MP3
Duration : 44mn 11s
Bit rate mode : Constant
Bit rate : 128 Kbps
Channel(s) : 2 channels
Sampling rate : 48.0 KHz
Compression mode : Lossy
Stream size : 40.5 MiB (11%)
Alignment : Aligned on interleaves
Interleave, duration : 42 ms (1.00 video frame)
Interleave, preload duration : 504 ms

Когда раздача ведётся путём добавления новых серий, при каждом добавлении создётся новый торрент. Чтобы начать докачку новой серии, пользователям необходимо сделать следующее:
(1) остановить скачивание,
(2) удалить старый торрент у себя из клиента (старые серии удалять не надо),
(3) скачать новый торрент и запустить его у себя в клиенте вместо старого, при этом указать клиенту путь в старую папку, куда и должно происходить скачивание новых серий.
Ваш клиент при этом должен произвести хеширование (проверку) старой папки (если не производит сам - помогите ему сделать это), и будет докачивать только те серии, которых у вас ещё нет. Старые серии при этом не удаляются, а продолжают раздаваться!
Eсли вы уже удалили старые серии, то предотвратить повторную закачку старых серий можно, отжав галочку в соответсвующих местах при запуске нового торрента. По возможности, желательно не удалять старые серии как можно дольше, чтобы релизёр не столько продолжал раздавать старые серии, а смог сконцентрироваться на новых.



   Похожие торренты   Торрент   Размер 
В этой теме нет новых непрочитанных сообщений. Уэйуорд Пайнс / Сосны / Wayward Pines [02x01-09 из 10] (2016) WEB-DLRip от HamsterStudio | L

26 | 37

3.11 ГБ

В этой теме нет новых непрочитанных сообщений. Уэйуорд Пайнс / Сосны / Wayward Pines [02x01-06 из 10] (2016) WEB-DLRip от HamsterStudio | L

228 | 183

2.08 ГБ

В этой теме нет новых непрочитанных сообщений. Уэйуорд Пайнс / Сосны / Wayward Pines [02x01-08 из 10] (2016) WEB-DLRip от HamsterStudio | L

77 | 124

2.76 ГБ

В этой теме нет новых непрочитанных сообщений. Уэйуорд Пайнс / Сосны / Wayward Pines [02x01-04 из 10] (2016) WEB-DLRip от HamsterStudio | L

0 | 0

1.39 ГБ

В этой теме нет новых непрочитанных сообщений. Уэйуорд Пайнс / Сосны / Wayward Pines [02x01-02 из 10] (2016) WEB-DLRip | IdeaFilm

24 | 10

1.19 ГБ

В этой теме нет новых непрочитанных сообщений. Уэйуорд Пайнс / Сосны / Wayward Pines [02x01 из 10] (2016) WEB-DLRip от Generalfilm | Fox

3 | 0

464.67 МБ

В этой теме нет новых непрочитанных сообщений. Уэйуорд Пайнс / Сосны / Wayward Pines [02x01-04 из 10] (2016) WEB-DLRip | IdeaFilm

4 | 8

2.36 ГБ




Вы не можете начинать темы
Вы не можете отвечать на сообщения
Вы не можете редактировать свои сообщения
Вы не можете удалять свои сообщения
Вы не можете добавлять вложения

Перейти:  
Для Мосгорсуда, Роскомнадзора и рекламодателей: mosgorsud-torrent[собачка]yandex.ru
 Вход
ppkBB3cker v.2 © 2008-2014 @ PPK
[ Time : 0.034s | 14 Queries | GZIP : Off ]

Торрент трекер RUTOR.IN, Не можете зайти на rutor.org? Какой новый адрес рутор? Какое зеркало рутор? Не работает rutor.org и зеркала? Тогда наш торрент специально для вас. Rutor.in неофициальное зеркало rutor. В случае если у Вас заблокирован rutor или вдруг Вы не можете на него зайти, то Вы без труда сможете скачать бесплатно и без рекламы последние новинки кино, игр, сериалов и прочего у нас, на Rutor.in. Не нужно использовать прокси, чтобы зайти на рутор, достаточно воспользоваться нашим ресурсом. Все новые фильмы, игры, сериалы, книги и музыка за 2013 и 2014 годы через торрент бесплатно. Скачивайте фильмы в хорошем качестве, игры для пк, xbox, playstation без регистрации. У нас вы найдете новые Зарубежные сериалы и Русские сериалы 2013, 2014, 2015 годов. Оставайтесь с нами, качайте любимые фильмы, игры, сериалы, книги и музыку.