img image001 image001 image001 image001 image001 image001 image001 image001 image001 image001 image001 image001 image001 image001 image001

Planets Sun Sun Sun
Статистика раздачи
Автор: PriZraK | Размер: 8.65 ГБ | Добавлен: 12 июл 2016
Раздают: 46    Качают: 8
Скачать торрент
Скачать торрент
Описание торрента

СообщениеДобавлено: 12 июл 2016 


Информация о фильме
Название: Золото Одина
Оригинальное название: TRIO: Odins Gull / TRIO: Odins Gold
Год выхода: 2014
Жанр: приключения, семейный
Режиссер: Атле Кнудсен
В ролях: Наоми Хассельберг Торсруд, Оскар Линдквист, Бьёрнар Лисфосс Хагесвеен, Рейдар Сёренсен, Андрэ Эриксон, Теа Бэй, Камилла Аугуста Халлан, Гьермунд Матисен, Ибрахим Лайки
О фильме:
Одиннадцатилетняя Нора переезжает в небольшой городок и в первый же день в школе заводит знакомство с двумя приятелями – Симоном и Ларсом. Вскоре ребята узнают, что вблизи их населенного пункта в раннем средневековье было спрятано сокровище, известное под названием "Золото Одина". Наши герои решают отправиться по следам этой легенды, несмотря на то, что Ларс после аварии не может самостоятельно передвигаться, и что очень многие кладоискатели в процессе поиска этого сокровища пропали без вести.

Производство: Норвегия / NordicStories, Fabelaktiv, Norddeutscher Rundfunk (NDR)
Продолжительность: 10 x ~00:24:00
Перевод: профессиональный (многолосый закадровый)
Файл
Качество: HDTVRip 1080p
Формат: MKV
Видео: MPEG-4 AVC, 1920x1080 (16:9), 25.000 fps, 5000 kbps, 0.096 bit/pixel
Аудио: русский, AC3 2.0, 48 kHz, 192 kbps
Формат : Matroska
Версия формата : Version 4 / Version 2
Размер файла : 884 Мбайт
Продолжительность : 24 м.
Режим общего битрейта : Постоянный
Общий поток : 5125 Кбит/сек
Дата кодирования : UTC 2016-06-16 23:20:04
Программа кодирования : mkvmerge v7.9.0 ('Birds') 64bit
Библиотека кодирования : libebml v1.3.1 + libmatroska v1.4.2
Видео
Идентификатор : 1
Формат : AVC
Формат/Информация : Advanced Video Codec
Профиль формата : High@L4.1
Параметр CABAC формата : Да
Параметр ReFrames формата : 3 кадра
Идентификатор кодека : V_MPEG4/ISO/AVC
Продолжительность : 24 м.
Вид битрейта : Постоянный
Битрейт : 5000 Кбит/сек
Ширина : 1920 пикселей
Высота : 1080 пикселей
Соотношение сторон : 16:9
Режим частоты кадров : Постоянный
Частота кадров : 25,000 кадров/сек
Стандарт вещания : PAL
Цветовое пространство : YUV
Субдискретизация насыщенности : 4:2:0
Битовая глубина : 8 бит
Тип развёртки : Прогрессивная
Бит/(Пиксели*Кадры) : 0.096
Размер потока : 834 Мбайт (94%)
Язык : English
Default : Да
Forced : Нет
Цветовой диапазон : Limited
Основные цвета : BT.709
Характеристики трансфера : BT.709
Коэффициенты матрицы : BT.709
Аудио
Идентификатор : 2
Формат : AC-3
Формат/Информация : Audio Coding 3
Расширение режима : CM (complete main)
Параметр Endianness формата : Big
Идентификатор кодека : A_AC3
Продолжительность : 24 м.
Вид битрейта : Постоянный
Битрейт : 192 Кбит/сек
Каналы : 2 канала
Расположение каналов : Front: L R
Частота : 48,0 КГц
Метод сжатия : С потерями
Размер потока : 33,1 Мбайт (4%)
Язык : Russian
Default : Да
Forced : Нет



   Похожие торренты   Торрент   Размер 
В этой теме нет новых непрочитанных сообщений. Discovery. Золото льдов / Ледяное золото / Ice Cold Gold [S02] (2014) HDTVRip от GeneralFilm | P1

62 | 22

4.78 ГБ

В этой теме нет новых непрочитанных сообщений. Киберзолото / TRIO: Cybergullet [s01] (2015) HDTVRip 1080p | P

10 | 4

8.7 ГБ

В этой теме нет новых непрочитанных сообщений. ACS Trio - Jazz in Marciac (2013) HDTVRip 1080p от Brazzass

15 | 14

4.05 ГБ

В этой теме нет новых непрочитанных сообщений. Discovery. Золото льдов / Ледяное золото / Ice Cold Gold [03x01] (2015) HDTVRip от GeneralFilm | P1

19 | 16

3.19 ГБ

В этой теме нет новых непрочитанных сообщений. Discovery. Золото льдов / Ледяное золото / Ice Cold Gold [03x01] (2015) HDTVRip от GeneralFilm | P1

27 | 13

4.25 ГБ

В этой теме нет новых непрочитанных сообщений. Discovery. Золото льдов / Ледяное золото / Ice Cold Gold [03x01] (2015) HDTVRip от GeneralFilm | P1

44 | 9

1.07 ГБ

В этой теме нет новых непрочитанных сообщений. Discovery. Золото льдов / Ледяное золото / Ice Cold Gold [03x01] (2015) HDTVRip от GeneralFilm | P1

31 | 39

4.78 ГБ




Вы не можете начинать темы
Вы не можете отвечать на сообщения
Вы не можете редактировать свои сообщения
Вы не можете удалять свои сообщения
Вы не можете добавлять вложения

Перейти:  
Для Мосгорсуда, Роскомнадзора и рекламодателей: mosgorsud-torrent[собачка]yandex.ru
 Вход
ppkBB3cker v.2 © 2008-2014 @ PPK
[ Time : 0.040s | 15 Queries | GZIP : On ]

Торрент трекер RUTOR.IN, Не можете зайти на rutor.org? Какой новый адрес рутор? Какое зеркало рутор? Не работает rutor.org и зеркала? Тогда наш торрент специально для вас. Rutor.in неофициальное зеркало rutor. В случае если у Вас заблокирован rutor или вдруг Вы не можете на него зайти, то Вы без труда сможете скачать бесплатно и без рекламы последние новинки кино, игр, сериалов и прочего у нас, на Rutor.in. Не нужно использовать прокси, чтобы зайти на рутор, достаточно воспользоваться нашим ресурсом. Все новые фильмы, игры, сериалы, книги и музыка за 2013 и 2014 годы через торрент бесплатно. Скачивайте фильмы в хорошем качестве, игры для пк, xbox, playstation без регистрации. У нас вы найдете новые Зарубежные сериалы и Русские сериалы 2013, 2014, 2015 годов. Оставайтесь с нами, качайте любимые фильмы, игры, сериалы, книги и музыку.