img image001 image001 image001 image001 image001 image001 image001 image001 image001 image001 image001 image001 image001 image001 image001

Planets Sun Sun Sun
Статистика раздачи
Автор: PriZraK | Размер: 48.36 ГБ | Добавлен: 12 июл 2016
Раздают: 60    Качают: 67
Скачать торрент
Скачать торрент
Описание торрента

СообщениеДобавлено: 12 июл 2016 


Оригинальное название: Бандитский Петербург
Год выпуска: 2000-2007
Жанр: Детектив, криминал, драма
Выпущено: Россия, КиноМост, 2-Б-2, Медиа-Стелс
Режиссер: Владимир Бортко
В ролях: Лев Борисов, Александр Домогаров ст., Кирилл Лавров, Ольга Дроздова, Дмитрий Певцов, Евгений Сидихин, Андрей Толубеев, Евгения Крюкова, Армен Джигарханян, Игорь Лифанов, Евгений Дятлов, Алексей Серебряков, Олег Басилашвили, Зинаида Шарко, Алексей Девотченко, Леонид Максимов, Николай Рудик, Михаил Пореченков, Александр Лыков, Андрей Краско, Анастасия Мельникова, Роман Агеев, Пётр Вельяминов, Юрий Ковалев, Сергей Барковский, Анатолий Петров, Александр Большаков, Виктор Сухоруков, Олеся Судзиловская, Михаил Разумовский, Анна Самохина, Юрий Цурило, Ян Цапник, Николай Чиндяйкин, Юрий Ицков, Александр Песков, Дмитрий Щербина, Константин Воробьёв, Кирилл Плетнёв
О фильме: Журналист Серёгин собирал материалы по делу об обычной квартирной краже, но вышел на более серьёзное преступление. Работая в одиночку и пытаясь самостоятельно во всем разобраться, он оказывается вовлечённым в опаснейшие события. Рассказывается о пропаже драгоценной картины Рембрандта "Эгина", за которой "охотятся" коррумпированные менты. Вор в законе Михеев по кличке Барон (Лавров), немолодой уже человек, становится соучастником преступления, но его подставляют, и он попадает в тюрьму...
Качество: DVDRip
Видео: XviD, ~ 1550 Кбит/с, 688х512
Аудио: МР3, 2 ch, 128 Кбит/с
Продолжительность: 90 х ~ 00:46:00
Язык: Русский
Полное имя E:Banditskij.Peterburg.[tahiy]Season 10Banditskij.Peterburg.s10e12.[tahiy].avi
Формат : AVI
Формат/Информация : Audio Video Interleave
Размер файла : 550 Мбайт
Продолжительность : 46 м.
Общий поток : 1661 Кбит/сек
Программа кодирования : VirtualDubMod 1.5.10.3 | www.virtualdub-fr.org || (build 2550/release)
Библиотека кодирования : VirtualDubMod build 2550/release
Видео
Идентификатор : 0
Формат : MPEG-4 Visual
Профиль формата : Advanced Simple@L5
Параметр BVOP формата : 1
Параметр QPel формата : Нет
Параметр GMC формата : Без точки перехода
Параметр матрицы формата : Default (MPEG)
Идентификатор кодека : XVID
Идентификатор кодека/Подсказка : XviD
Продолжительность : 46 м.
Битрейт : 1524 Кбит/сек
Ширина : 688 пикселей
Высота : 512 пикселей
Соотношение сторон : 4:3
Частота кадров : 25,000 кадров/сек
Цветовое пространство : YUV
Субдискретизация насыщенности : 4:2:0
Битовая глубина : 8 бит
Тип развёртки : Прогрессивная
Метод сжатия : С потерями
Бит/(Пиксели*Кадры) : 0.173
Размер потока : 505 Мбайт (92%)
Библиотека кодирования : XviD 73
Аудио
Идентификатор : 1
Формат : MPEG Audio
Версия формата : Version 1
Профиль формата : Layer 3
Режим : Joint stereo
Расширение режима : MS Stereo
Идентификатор кодека : 55
Идентификатор кодека/Подсказка : MP3
Продолжительность : 46 м.
Вид битрейта : Постоянный
Битрейт : 128 Кбит/сек
Каналы : 2 канала
Частота : 48,0 КГц
Метод сжатия : С потерями
Размер потока : 42,4 Мбайт (8%)
Выравнивание : Соединение по промежуткам
Продолжительность промежутка : 40 мс. (1,00 видеокадр)
Время предзагрузки промежутка : 504 мс.
Библиотека кодирования : LAME3.99r
Настройки программы : -m j -V 4 -q 2 -lowpass 17 -b 128





   Похожие торренты   Торрент   Размер 
В этой теме нет новых непрочитанных сообщений. Бандитский Петербург [S01-S10] (2000-2007) DVDRip

32 | 221

48.59 ГБ

В этой теме нет новых непрочитанных сообщений. Бандитский Петербург [S01-10] (2000-2007) DVDRip от GeneralFilm

59 | 96

30.5 ГБ

В этой теме нет новых непрочитанных сообщений. Бандитский Петербург (все серии) (2000-2007) DVDRip+TVRip

79 | 295

35.76 ГБ

В этой теме нет новых непрочитанных сообщений. Бандитский Петербург [сезоны 1-10] [серии 1-90] (2000-2007) DVDRip

528 | 2000

43 ГБ

В этой теме нет новых непрочитанных сообщений. Бандитский Петербург [S01-10 из 10] (2000-2007) DVD-9

20 | 81

134.04 ГБ

В этой теме нет новых непрочитанных сообщений. Бандитский Петербург. Адвокат [02х01-10 из 10] (2000) DVDRip от Scarabey

533 | 62

8.7 ГБ

В этой теме нет новых непрочитанных сообщений. Бандитский Петербург / сезоны 1-10 из 10 / серии 1-90 из 90 (2000) DVDRip-AVC от Zarraza

149 | 381

67.42 ГБ




Вы не можете начинать темы
Вы не можете отвечать на сообщения
Вы не можете редактировать свои сообщения
Вы не можете удалять свои сообщения
Вы не можете добавлять вложения

Перейти:  
Для Мосгорсуда, Роскомнадзора и рекламодателей: mosgorsud-torrent[собачка]yandex.ru
 Вход
ppkBB3cker v.2 © 2008-2014 @ PPK
[ Time : 0.056s | 14 Queries | GZIP : Off ]

Торрент трекер RUTOR.IN, Не можете зайти на rutor.org? Какой новый адрес рутор? Какое зеркало рутор? Не работает rutor.org и зеркала? Тогда наш торрент специально для вас. Rutor.in неофициальное зеркало rutor. В случае если у Вас заблокирован rutor или вдруг Вы не можете на него зайти, то Вы без труда сможете скачать бесплатно и без рекламы последние новинки кино, игр, сериалов и прочего у нас, на Rutor.in. Не нужно использовать прокси, чтобы зайти на рутор, достаточно воспользоваться нашим ресурсом. Все новые фильмы, игры, сериалы, книги и музыка за 2013 и 2014 годы через торрент бесплатно. Скачивайте фильмы в хорошем качестве, игры для пк, xbox, playstation без регистрации. У нас вы найдете новые Зарубежные сериалы и Русские сериалы 2013, 2014, 2015 годов. Оставайтесь с нами, качайте любимые фильмы, игры, сериалы, книги и музыку.