img image001 image001 image001 image001 image001 image001 image001 image001 image001 image001 image001 image001 image001 image001 image001

Planets Sun Sun Sun
Статистика раздачи
Автор: PriZraK | Размер: 87.37 ГБ | Добавлен: 11 июл 2016, 21:02
Раздают: 65    Качают: 45
Скачать торрент
Скачать торрент
Описание торрента

СообщениеДобавлено: 11 июл 2016, 21:02 

Мистер Робот | Mr. Robot

«I'm crazy. This is crazy. I'm crazy»
Сезон 1, Эпизодs c 1 по 10

Информация о фильме:
Название: Мистер Робот
Оригинальное название: Mr. Robot
Год выпуска: 2015
Жанр: триллер, драма, криминал
Режиссёр: Сэм Эсмейл, Джим МакКэй, Тришиа Брок
В ролях: Рами Малек, Брюс Олтмен, Кристиан Слэйтер, Майкл Бушеми, Карли Чаикин, Самрат Чакрабарти, Портия Даблдэй и др.
Описание: История молодого программиста Эллиота, страдающего социофобией и решившего, что единственный приемлемый для него способ взаимодействия с людьми — это профессия хакера. Таким образом, он быстро оказывается в том самом месте, где пересекаются интересы его работодателя — фирмы, занимающейся кибербезопасностью, — и подпольных организаций, которые пытаются его завербовать с целью обрушения самых могучих американских корпораций.

Страна: США, Universal Cable Productions
Продолжительность: по ~ 00:45:00 (01:04:56 - 1-ый эпизод, по ~ 00:55:00 - эпизоды 9-10)
Перевод:
- Профессиональный (многоголосый, закадровый) [LostFilm]
- Профессиональный (многоголосый, закадровый) [NewStudio]
- Профессиональный (двухголосый, закадровый) [Кубик в Кубе]
- Профессиональный (многоголосый, закадровый) [BaibaKo]
- Профессиональный (двухголосый, закадровый) [Gears Media]
Сохранены оригинальные чаптеры как на Blu-Ray
• Работа над дорожками LostFilm'a: [color=Green]Nez
• Работа над дорожками Кубик в кубе: [color=Green]Messafan
• Автор субтитров: Анастасия Киселенко, тайминг: qqss44 (под WEB-DL) и Stiles (RG SerialS) (под BluRay)
• Синхронизация дорожек под BluRay: Stiles (RG SerialS)

Файл:
Формат: MKV
Видео кодек: MPEG-4 AVC
Аудио кодек: AC3, DTS-HD MA
Свойства видео: 1920x1080 (16:9), 23.976 fps, ~21000 kbps, 0.58 bits/pixel
Аудио #1 : 48 kHz, AC3, 3/2 (L,C,R,l,r) + LFE ch, ~384.00 kbps avg |Профессиональный (многоголосый, закадровый) [LostFilm]
Аудио #2 : 48 kHz, AC3, 3/2 (L,C,R,l,r) + LFE ch, ~384.00 kbps avg |Профессиональный (многоголосый, закадровый) [NewStudio]
Аудио #3 : 48 kHz, AC3, 3/2 (L,C,R,l,r) + LFE ch, ~384.00 kbps avg |Профессиональный (двухголосый, закадровый) [Кубик в Кубе]
Аудио #4 : 48 kHz, AC3, 3/2 (L,C,R,l,r) + LFE ch, ~384.00 kbps avg |Профессиональный (многоголосый, закадровый) [BaibaKo]
Аудио #5 : 48 kHz, AC3, 2/0 (L,R) ch, ~192.00 kbps avg |Профессиональный (двухголосый, закадровый) [Gears Media]
Аудио #6 : 48 kHz, DTS-HD MA, 3/2 (L,C,R,l,r) + LFE ch, ~3822.00 kbps avg (DTS Core: 5.1 / 48 kHz / 1509 kbps / 24-bit) |Оригинал|
General
Unique ID : 235286971939664837097596532148869889568 (0xB1029F5ABC8EFE79B4ECB8F4CC817E20)
Complete name : G:Mr. RobotMr. Robot S01 BDRemux 1080p 5xRus Eng Subs by Stiles RG SerialSMr. Robot S01E10 zer0-day.avi BDRemux 1080p 5xRus Eng Subs by Stiles RG SerialS.mkv
Format : Matroska
Format version : Version 4 / Version 2
File size : 9.80 GiB
Duration : 54mn 0s
Overall bit rate mode : Variable
Overall bit rate : 26.0 Mbps
Movie name : Mr. Robot 1x10 - eps1.9_zer0-day.avi - Release by Stiles (RG SerialS)
Encoded date : UTC 2016-07-11 09:44:52
Writing application : mkvmerge v7.9.0 ('Birds') 64bit
Writing library : libebml v1.3.1 + libmatroska v1.4.2
Attachements : cover.jpg
DURATION : 00:53:58.510000000
NUMBER_OF_FRAMES : 709
NUMBER_OF_BYTES : 44227
_STATISTICS_WRITING_APP : mkvmerge v7.9.0 ('Birds') 64bit
_STATISTICS_WRITING_DATE_UT : 2016-07-11 09:44:52
_STATISTICS_TAGS : BPS DURATION NUMBER_OF_FRAMES NUMBER_OF_BYTES
Video
ID : 1
Format : AVC
Format/Info : Advanced Video Codec
Format profile : High@L4.1
Format settings, CABAC : Yes
Format settings, ReFrames : 4 frames
Codec ID : V_MPEG4/ISO/AVC
Duration : 54mn 0s
Bit rate mode : Variable
Maximum bit rate : 35.0 Mbps
Width : 1 920 pixels
Height : 1 080 pixels
Display aspect ratio : 16:9
Frame rate mode : Constant
Frame rate : 23.976 fps
Color space : YUV
Chroma subsampling : 4:2:0
Bit depth : 8 bits
Scan type : Progressive
Language : English
Default : Yes
Forced : No
Audio #1
ID : 2
Format : AC-3
Format/Info : Audio Coding 3
Mode extension : CM (complete main)
Format settings, Endianness : Big
Codec ID : A_AC3
Duration : 54mn 0s
Bit rate mode : Constant
Bit rate : 384 Kbps
Channel(s) : 6 channels
Channel positions : Front: L C R, Side: L R, LFE
Sampling rate : 48.0 KHz
Compression mode : Lossy
Stream size : 148 MiB (1%)
Title : LostFilm
Language : Russian
Default : Yes
Forced : No
Audio #2
ID : 3
Format : AC-3
Format/Info : Audio Coding 3
Mode extension : CM (complete main)
Format settings, Endianness : Big
Codec ID : A_AC3
Duration : 54mn 0s
Bit rate mode : Constant
Bit rate : 384 Kbps
Channel(s) : 6 channels
Channel positions : Front: L C R, Side: L R, LFE
Sampling rate : 48.0 KHz
Compression mode : Lossy
Stream size : 148 MiB (1%)
Title : NewStudio
Language : Russian
Default : No
Forced : No
Audio #3
ID : 4
Format : AC-3
Format/Info : Audio Coding 3
Mode extension : CM (complete main)
Format settings, Endianness : Big
Codec ID : A_AC3
Duration : 54mn 0s
Bit rate mode : Constant
Bit rate : 384 Kbps
Channel(s) : 6 channels
Channel positions : Front: L C R, Side: L R, LFE
Sampling rate : 48.0 KHz
Compression mode : Lossy
Stream size : 148 MiB (1%)
Title : Кубик в Кубе
Language : Russian
Default : No
Forced : No
Audio #4
ID : 5
Format : AC-3
Format/Info : Audio Coding 3
Mode extension : CM (complete main)
Format settings, Endianness : Big
Codec ID : A_AC3
Duration : 54mn 0s
Bit rate mode : Constant
Bit rate : 384 Kbps
Channel(s) : 6 channels
Channel positions : Front: L C R, Side: L R, LFE
Sampling rate : 48.0 KHz
Compression mode : Lossy
Stream size : 148 MiB (1%)
Title : BaibaKo
Language : Russian
Default : No
Forced : No
Audio #5
ID : 6
Format : AC-3
Format/Info : Audio Coding 3
Mode extension : CM (complete main)
Format settings, Endianness : Big
Codec ID : A_AC3
Duration : 54mn 0s
Bit rate mode : Constant
Bit rate : 192 Kbps
Channel(s) : 2 channels
Channel positions : Front: L R
Sampling rate : 48.0 KHz
Compression mode : Lossy
Stream size : 74.2 MiB (1%)
Title : Gears Media
Language : Russian
Default : No
Forced : No
Audio #6
ID : 7
Format : DTS
Format/Info : Digital Theater Systems
Format profile : MA / Core
Mode : 16
Format settings, Endianness : Big
Codec ID : A_DTS
Duration : 54mn 0s
Bit rate mode : Variable
Bit rate : Unknown / 1 509 Kbps
Channel(s) : 6 channels
Channel positions : Front: L C R, Side: L R, LFE
Sampling rate : 48.0 KHz
Bit depth : 24 bits
Compression mode : Lossless / Lossy
Language : English
Default : No
Forced : No
Text #1
ID : 8
Format : UTF-8
Codec ID : S_TEXT/UTF8
Codec ID/Info : UTF-8 Plain Text
Language : Russian
Default : No
Forced : No
Text #2
ID : 9
Format : PGS
Muxing mode : zlib
Codec ID : S_HDMV/PGS
Codec ID/Info : Picture based subtitle format used on BDs/HD-DVDs
Language : English
Default : No
Forced : No
Menu
00:00:00.000 : en:Chapter 1
00:08:01.355 : en:Chapter 2
00:24:37.517 : en:Chapter 3
00:42:44.687 : en:Chapter 4
00:53:59.527 : en:Chapter 5



Релиз от: Stiles



   Похожие торренты   Торрент   Размер 
В этой теме нет новых непрочитанных сообщений. Мистер Робот / Mr. Robot [S01] (2015) WEB-DL 1080p от qqss44 | LostFilm, NewStudio, Кубик в кубе, BaibaKo, Gears Media

225 | 158

24.08 ГБ

В этой теме нет новых непрочитанных сообщений. Мистер Робот / Mr. Robot [S01] (2015) WEB-DL 720p от qqss44 | LostFilm, NewStudio, Кубик в кубе, BaibaKo, Gears Media

143 | 205

20.68 ГБ

В этой теме нет новых непрочитанных сообщений. Мистер Робот / Mr. Robot [S01] (2015) HDTVRip от Generalfilm | Кубик в Кубе

512 | 174

6.23 ГБ

В этой теме нет новых непрочитанных сообщений. Мистер Робот / Mr. Robot [S01] (2015) WEB-DL 720p | Gears Media

335 | 1069

17.56 ГБ

В этой теме нет новых непрочитанных сообщений. Мистер Робот / Mr. Robot [S01] (2015) WEB-DLRip | Gears Media

62 | 34

5.66 ГБ

В этой теме нет новых непрочитанных сообщений. Мистер Робот / Mr. Robot [S01] (2015) WEB-DLRip | Gears Media

21 | 20

6.4 ГБ

В этой теме нет новых непрочитанных сообщений. Мистер Робот / Mr. Robot [01х01-04 из 10] (2015) HDTVRip от Generalfilm | P2 | Кубик в Кубе

67 | 38

2.66 ГБ




Вы не можете начинать темы
Вы не можете отвечать на сообщения
Вы не можете редактировать свои сообщения
Вы не можете удалять свои сообщения
Вы не можете добавлять вложения

Перейти:  
Для Мосгорсуда, Роскомнадзора и рекламодателей: mosgorsud-torrent[собачка]yandex.ru
Настройки
ppkBB3cker v.2 © 2008-2014 @ PPK
[ Time : 0.017s | 15 Queries | GZIP : Off ]
CGP [Extreme] output time : 0.00012s | 0 Queries | GZIP : Off

Торрент трекер RUTOR.IN, Не можете зайти на rutor.org? Какой новый адрес рутор? Какое зеркало рутор? Не работает rutor.org и зеркала? Тогда наш торрент специально для вас. Rutor.in неофициальное зеркало rutor. В случае если у Вас заблокирован rutor или вдруг Вы не можете на него зайти, то Вы без труда сможете скачать бесплатно и без рекламы последние новинки кино, игр, сериалов и прочего у нас, на Rutor.in. Не нужно использовать прокси, чтобы зайти на рутор, достаточно воспользоваться нашим ресурсом. Все новые фильмы, игры, сериалы, книги и музыка за 2013 и 2014 годы через торрент бесплатно. Скачивайте фильмы в хорошем качестве, игры для пк, xbox, playstation без регистрации. У нас вы найдете новые Зарубежные сериалы и Русские сериалы 2013, 2014, 2015 годов. Оставайтесь с нами, качайте любимые фильмы, игры, сериалы, книги и музыку.