img image001 image001 image001 image001 image001 image001 image001 image001 image001 image001 image001 image001 image001 image001 image001

Planets Sun Sun Sun
Статистика раздачи
Автор: Nickolas3434 | Размер: 8.7 ГБ | Добавлен: 20 июл 2016
Раздают: 10    Качают: 4
Скачать торрент
Скачать торрент
Описание торрента

СообщениеДобавлено: 20 июл 2016 


Информация о фильме
Название: Киберзолото
Оригинальное название: TRIO: Cybergullet
Год выхода: 2015
Жанр: приключения, семейный
Режиссер: Маргрет Бергхайм
В ролях: Наоми Хассельберг Торсруд, Оскар Линдквист, Бьёрнар Лисфосс Хагесвеен, Рейдар Сёренсен, Матс Элдоен, Камилла Аугуста Халлан, Франциска Тёрнквист, Рагнхильд Ваннебо
О фильме:
Опасный преступник решается на организованную хакерскую атаку, чтобы завладеть золотым запасом Норвегии. Но чтобы не засветиться, он решает подставить отца Ларса. Юным героям предстоит исправить это недоразумение и, по возможности, помочь остановить злодея.
Продолжение сериала Золото Одина. По российскому ТВ они показывались под общим названием Золото Одина.

Производство: Норвегия / NordicStories
Продолжительность: 10 x ~00:24:00
Перевод: профессиональный (многолосый закадровый)
Файл
Качество: HDTVRip 1080p
Формат: MKV
Видео: MPEG-4 AVC, 1920x1080 (16:9), 25.000 fps, 5000 kbps, 0.096 bit/pixel
Аудио: русский, AC3 2.0, 48 kHz, 192 kbps
Формат : Matroska
Версия формата : Version 4 / Version 2
Размер файла : 876 Мбайт
Продолжительность : 23 м.
Режим общего битрейта : Постоянный
Общий поток : 5112 Кбит/сек
Дата кодирования : UTC 2016-06-24 11:44:34
Программа кодирования : mkvmerge v7.9.0 ('Birds') 64bit
Библиотека кодирования : libebml v1.3.1 + libmatroska v1.4.2
Видео
Идентификатор : 1
Формат : AVC
Формат/Информация : Advanced Video Codec
Профиль формата : High@L4.1
Параметр CABAC формата : Да
Параметр ReFrames формата : 3 кадра
Параметр GOP формата : M=3, N=25
Идентификатор кодека : V_MPEG4/ISO/AVC
Продолжительность : 23 м.
Вид битрейта : Постоянный
Битрейт : 5000 Кбит/сек
Ширина : 1920 пикселей
Высота : 1080 пикселей
Соотношение сторон : 16:9
Режим частоты кадров : Постоянный
Частота кадров : 25,000 кадров/сек
Стандарт вещания : PAL
Цветовое пространство : YUV
Субдискретизация насыщенности : 4:2:0
Битовая глубина : 8 бит
Тип развёртки : Прогрессивная
Бит/(Пиксели*Кадры) : 0.096
Размер потока : 825 Мбайт (94%)
Язык : English
Default : Да
Forced : Нет
Цветовой диапазон : Limited
Основные цвета : BT.709
Характеристики трансфера : BT.709
Коэффициенты матрицы : BT.709
Аудио
Идентификатор : 2
Формат : AC-3
Формат/Информация : Audio Coding 3
Расширение режима : CM (complete main)
Параметр Endianness формата : Big
Идентификатор кодека : A_AC3
Продолжительность : 23 м.
Вид битрейта : Постоянный
Битрейт : 192 Кбит/сек
Каналы : 2 канала
Расположение каналов : Front: L R
Частота : 48,0 КГц
Метод сжатия : С потерями
Размер потока : 32,9 Мбайт (4%)
Язык : Russian
Default : Да
Forced : Нет



   Похожие торренты   Торрент   Размер 
В этой теме нет новых непрочитанных сообщений. ACS Trio - Jazz in Marciac (2013) HDTVRip 1080p от Brazzass

15 | 14

4.05 ГБ

В этой теме нет новых непрочитанных сообщений. Золото Одина / TRIO: Odins Gull [s01] (2014) HDTVRip 1080p | P

46 | 8

8.65 ГБ

В этой теме нет новых непрочитанных сообщений. Адское трио / Le trio infernal / Infernal Trio (1974) DVDRip-AVC от olegek70

3 | 4

1.37 ГБ

В этой теме нет новых непрочитанных сообщений. Адское трио / Le trio infernal / Infernal Trio (1974) DVDRip | P1

3 | 1

1.73 ГБ

В этой теме нет новых непрочитанных сообщений. Aaron Goldberg Trio - Live at the EFG London Jazz Festival (2014) HDTV 1080p от Brazzass

34 | 17

4.45 ГБ

В этой теме нет новых непрочитанных сообщений. V.Stefanovski Trio & Jan Akkerman - Thunder From The Blue Sky (2008) HDTVRip от Brazzass

46 | 8

4.33 ГБ

В этой теме нет новых непрочитанных сообщений. VA - Trio (Great Jazz Trios Performances) (2015) MP3

17 | 3

168.32 МБ




Вы не можете начинать темы
Вы не можете отвечать на сообщения
Вы не можете редактировать свои сообщения
Вы не можете удалять свои сообщения
Вы не можете добавлять вложения

Перейти:  
Для Мосгорсуда, Роскомнадзора и рекламодателей: mosgorsud-torrent[собачка]yandex.ru
 Вход
ppkBB3cker v.2 © 2008-2014 @ PPK
[ Time : 2.238s | 14 Queries | GZIP : On ]

Торрент трекер RUTOR.IN, Не можете зайти на rutor.org? Какой новый адрес рутор? Какое зеркало рутор? Не работает rutor.org и зеркала? Тогда наш торрент специально для вас. Rutor.in неофициальное зеркало rutor. В случае если у Вас заблокирован rutor или вдруг Вы не можете на него зайти, то Вы без труда сможете скачать бесплатно и без рекламы последние новинки кино, игр, сериалов и прочего у нас, на Rutor.in. Не нужно использовать прокси, чтобы зайти на рутор, достаточно воспользоваться нашим ресурсом. Все новые фильмы, игры, сериалы, книги и музыка за 2013 и 2014 годы через торрент бесплатно. Скачивайте фильмы в хорошем качестве, игры для пк, xbox, playstation без регистрации. У нас вы найдете новые Зарубежные сериалы и Русские сериалы 2013, 2014, 2015 годов. Оставайтесь с нами, качайте любимые фильмы, игры, сериалы, книги и музыку.