img image001 image001 image001 image001 image001 image001 image001 image001 image001 image001 image001 image001 image001 image001 image001

Planets Sun Sun Sun
Статистика раздачи
Автор: Nickolas3434 | Размер: 14.59 ГБ | Добавлен: 21 июл 2016
Раздают: 9    Качают: 12
Скачать торрент
Скачать торрент
Описание торрента

СообщениеДобавлено: 21 июл 2016 


Информация о фильме
Название: Заключенный
Оригинальное название: The Prisoner
Год выхода: 1967-1968
Жанр: Фантастика, боевик, драма, детектив
Режиссер: Патрик МакГухан, Дон Чэффи
В ролях: Патрик МакГухан, Джордж Маркстайн, Анджело Мускат, Питер Стэнвик, Фенелла Филдинг, Лео МакКерн, Кристофер Бенжамин, Майкл Миллер, Алексис Каннер, Фрэнк Мехер
О фильме:
Сериал повествует о безымянном британском агенте, который только что уволился и вдруг оказывается в «Деревне», изолированной от мира горами и морем. Деревня прямо таки напичкана системами наблюдения и защитными полями, также есть мистическое устройство называемое Ровер, которое ловит всех, кто пытается сбежать. Деревня населена сотнями людей из разных культур и слоев общества, кажется что каждый спокойно живет своей жизнью. У всех жителей номера, вместо имён, они не помнят ничего о своей прошлой жизни. Главного героя все называют «Шестой». Не зная кому доверять, «Шестой» пытается узнать правду об этом загадочном месте, выяснить причину его появления в «Деревне» и самое главное — найти способ сбежать отсюда.

Страна: Великобритания
Студия: Incorporated Television Company (ITC), Everyman Films
Продолжительность: 17 x ~ 00:50:00
Перевод: Любительский двухголосый (HamsterStudio)
Файл
Кодек: x264
Качество: HDRip-AVC
Видео: MPEG-4 AVC, ~ 1960 Кбит/с, 768x576, 24 кадр/с
Звук: AC3, 6 ch, 448 Кбит/с
Общее
Уникальный идентификатор : 212390199051648116394735221624362316022 (0x9FC8DD4AF179C437B585978A07B530F6)
Полное имя : The Prisoner.HDRip-AVCThe.Prisoner.s01e01.HDRip-AVC.mkv
Формат : Matroska
Версия формата : Version 4 / Version 2
Размер файла : 879 Мбайт
Продолжительность : 50 м.
Общий поток : 2411 Кбит/сек
Дата кодирования : UTC 2016-06-11 17:23:05
Программа кодирования : mkvmerge v7.7.0 ('Six Voices') 32bit built on Feb 28 2015 23:23:00
Библиотека кодирования : libebml v1.3.1 + libmatroska v1.4.2
DURATION : 00:50:58.959000000
NUMBER_OF_FRAMES : 73415
NUMBER_OF_BYTES : 749988877
_STATISTICS_WRITING_APP : mkvmerge v7.7.0 ('Six Voices') 32bit built on Feb 28 2015 23:23:00
_STATISTICS_WRITING_DATE_UTC : 2016-06-11 17:23:05
_STATISTICS_TAGS : BPS DURATION NUMBER_OF_FRAMES NUMBER_OF_BYTES
Видео
Идентификатор : 1
Формат : AVC
Формат/Информация : Advanced Video Codec
Профиль формата : High@L4.1
Параметр CABAC формата : Да
Параметр ReFrames формата : 11 кадров
Идентификатор кодека : V_MPEG4/ISO/AVC
Продолжительность : 50 м.
Битрейт : 1961 Кбит/сек
Ширина : 768 пикселей
Высота : 576 пикселей
Соотношение сторон : 4:3
Режим частоты кадров : Постоянный
Частота кадров : 24,000 кадра/сек
Цветовое пространство : YUV
Субдискретизация насыщенности : 4:2:0
Битовая глубина : 8 бит
Тип развёртки : Прогрессивная
Бит/(Пиксели*Кадры) : 0.185
Размер потока : 698 Мбайт (79%)
Библиотека кодирования : x264 core 146 r2538 121396c
Настройки программы : cabac=1 / ref=11 / deblock=1:-3:-3 / analyse=0x3:0x133 / me=umh / subme=10 / psy=1 / psy_rd=1.00:0.00 / mixed_ref=1 / me_range=32 / chroma_me=1 / trellis=2 / 8x8dct=1 / cqm=0 / deadzone=21,11 / fast_pskip=0 / chroma_qp_offset=-2 / threads=3 / lookahead_threads=1 / sliced_threads=0 / nr=0 / decimate=1 / interlaced=0 / bluray_compat=0 / constrained_intra=0 / bframes=10 / b_pyramid=2 / b_adapt=2 / b_bias=0 / direct=3 / weightb=1 / open_gop=0 / weightp=2 / keyint=240 / keyint_min=24 / scenecut=40 / intra_refresh=0 / rc_lookahead=40 / rc=2pass / mbtree=1 / bitrate=1961 / ratetol=1.0 / qcomp=0.60 / qpmin=10 / qpmax=51 / qpstep=4 / cplxblur=20.0 / qblur=0.5 / vbv_maxrate=50000 / vbv_bufsize=62500 / nal_hrd=none / filler=0 / ip_ratio=1.40 / aq=1:1.00
Default : Да
Forced : Нет
Аудио
Идентификатор : 2
Формат : AC-3
Формат/Информация : Audio Coding 3
Расширение режима : CM (complete main)
Параметр Endianness формата : Big
Идентификатор кодека : A_AC3
Продолжительность : 50 м.
Вид битрейта : Постоянный
Битрейт : 448 Кбит/сек
Каналы : 6 каналов
Расположение каналов : Front: L C R, Side: L R, LFE
Частота : 48,0 КГц
Метод сжатия : С потерями
Размер потока : 163 Мбайт (19%)
Язык : Russian
Default : Да
Forced : Да
Меню
00:00:00.000 : en:Chapter 1
00:02:16.541 : en:Chapter 2
00:06:20.958 : en:Chapter 3
00:09:29.541 : en:Chapter 4
00:15:30.208 : en:Chapter 5
00:20:54.208 : en:Chapter 6
00:28:05.833 : en:Chapter 7
00:36:16.583 : en:Chapter 8
00:42:30.583 : en:Chapter 9
00:45:30.166 : en:Chapter 10



   Похожие торренты   Торрент   Размер 
В этой теме нет новых непрочитанных сообщений. Заключенный / The Prisoner [s01] (1967-1968) BDRip 720p | L2

2 | 0

33.4 ГБ

В этой теме нет новых непрочитанных сообщений. Заключённый Икс / Prisoner X (2016) WEB-DLRip | L

213 | 5

1.36 ГБ

В этой теме нет новых непрочитанных сообщений. Заключённый Икс / Prisoner X (2016) WEB-DLRip 720р | L

165 | 0

2.65 ГБ

В этой теме нет новых непрочитанных сообщений. Заключенный / Узник / Пленник / The Prisoner [s01] (2009) Blu-Ray Remux 1080i от HDClub

0 | 3

56.84 ГБ

В этой теме нет новых непрочитанных сообщений. Заключенный / Узник / Пленник / The Prisoner [s01] (2009) BDRip-AVC от MediaClub | Lostfilm, Вольга

150 | 183

9.38 ГБ

В этой теме нет новых непрочитанных сообщений. Заключенный Р / R (2010) BDRip от Koenig | P

299 | 48

1.45 ГБ

В этой теме нет новых непрочитанных сообщений. Маг / The Magus (1968) HDRip от Koenig | P

103 | 9

1.45 ГБ




Вы не можете начинать темы
Вы не можете отвечать на сообщения
Вы не можете редактировать свои сообщения
Вы не можете удалять свои сообщения
Вы не можете добавлять вложения

Перейти:  
Для Мосгорсуда, Роскомнадзора и рекламодателей: mosgorsud-torrent[собачка]yandex.ru
 Вход
ppkBB3cker v.2 © 2008-2014 @ PPK
[ Time : 0.042s | 15 Queries | GZIP : Off ]

Торрент трекер RUTOR.IN, Не можете зайти на rutor.org? Какой новый адрес рутор? Какое зеркало рутор? Не работает rutor.org и зеркала? Тогда наш торрент специально для вас. Rutor.in неофициальное зеркало rutor. В случае если у Вас заблокирован rutor или вдруг Вы не можете на него зайти, то Вы без труда сможете скачать бесплатно и без рекламы последние новинки кино, игр, сериалов и прочего у нас, на Rutor.in. Не нужно использовать прокси, чтобы зайти на рутор, достаточно воспользоваться нашим ресурсом. Все новые фильмы, игры, сериалы, книги и музыка за 2013 и 2014 годы через торрент бесплатно. Скачивайте фильмы в хорошем качестве, игры для пк, xbox, playstation без регистрации. У нас вы найдете новые Зарубежные сериалы и Русские сериалы 2013, 2014, 2015 годов. Оставайтесь с нами, качайте любимые фильмы, игры, сериалы, книги и музыку.
cron