img image001 image001 image001 image001 image001 image001 image001 image001 image001 image001 image001 image001 image001 image001 image001

Planets Sun Sun Sun
Статистика раздачи
Автор: Nickolas3434 | Размер: 11.23 ГБ | Добавлен: 24 июл 2016
Раздают: 1130    Качают: 399
Скачать торрент
Скачать торрент
Описание торрента

СообщениеДобавлено: 24 июл 2016 

Обратная сторона Луны


Страна: Россия
Жанр: фантастика, триллер, драма, криминал, детектив
Год выпуска: 2012
Продолжительность: ~00:50:00
Перевод: Не требуется
Cубтитры: нет
Оригинальная аудиодорожка: русский
Сезон: 1
Количество серий: 1 - 16 из 16
Режиссер: Александр Котт
В ролях: Павел Деревянко, Светлана Смирнова-Марцинкевич, Иван Шибанов, Карина Разумовская, Евгений Богомолов, Олег Алмазов, Дмитрий Гусев, Александр Ляпин, Татьяна Чердынцева, Сергей Беляев, Сергей Галахов, Ирина Марцинкевич
Описание:
Третий год старший лейтенант полиции Михаил Соловьев идет по следу Маньяка, терроризирующего столицу убийствами молодых женщин. Во время операции задержания Маньяк сбивает Соловьева автомобилем.
Придя в себя после аварии, Михаил обнаруживает, что переместился во времени и оказался в 1979 году. Не понимая до конца, что с ним произошло, он, тем не менее, старается адаптироваться к новым обстоятельствам, работая советским милиционером. А попутно пытается выяснить, в чем причина случившейся с ним метаморфозы.

Релиз:
Автор рипа: stalkerok
Сэмпл #1
Сэмпл #2
Качество видео: BDRip-AVC [Обратная сторона Луны (2012) Blu-ray 720p AVC DD 5.1 HDCLUB]
Формат видео: MKV
Видео кодек: AVC
Аудио кодек: AC3
Видео: ~1400 Кбит/сек, 960x540 (16:9), 23,976 кадр/сек, AVC
Аудио: русский, 384 Кбит/сек, 48 КГц, 16 бит, 5.1, AC3

Общее
Уникальный идентификатор : 184458860304123119393647440953200162711 (0x8AC57BF83FADEC3294BF9DB72C6D3797)
Полное имя : M:2RipsОбратная сторона ЛуныObratnaja.storona.Luny.s01.2012.BDRip-AVCObratnaja.storona.Luny.s01e01.2012.BDRip-AVC.stalkerok.new-team.mkv
Формат : Matroska
Версия формата : Version 4 / Version 2
Размер файла : 1,29 Гбайт
Продолжительность : 1 ч. 41 м.
Общий поток : 1811 Кбит/сек
Название фильма : Обратная сторона Луны (2012) (Rip by stalkerok)
Дата кодирования : UTC 2016-07-21 10:43:12
Программа кодирования : mkvmerge v8.6.1 ('Flying') 64bit
Библиотека кодирования : libebml v1.3.3 + libmatroska v1.4.4
Видео
Идентификатор : 1
Формат : AVC
Формат/Информация : Advanced Video Codec
Профиль формата : High@L4.1
Параметр CABAC формата : Да
Параметр ReFrames формата : 14 кадров
Идентификатор кодека : V_MPEG4/ISO/AVC
Продолжительность : 1 ч. 41 м.
Битрейт : 1426 Кбит/сек
Ширина : 960 пикселей
Высота : 540 пикселей
Соотношение сторон : 16:9
Режим частоты кадров : Постоянный
Частота кадров : 23,976 (24000/1001) кадра/сек
Цветовое пространство : YUV
Субдискретизация насыщенности : 4:2:0
Битовая глубина : 8 бит
Тип развёртки : Прогрессивная
Бит/(Пиксели*Кадры) : 0.115
Размер потока : 1,01 Гбайт (79%)
Заголовок : Обратная сторона Луны (2012) (Rip by stalkerok)
Библиотека кодирования : x264 core 148 r2705+54 9f484c1 t_mod_Custom [8-bit@all X86_64]
Настройки программы : cabac=1 / ref=14 / deblock=1:-3:-2 / analyse=0x3:0x133 / me=umh / subme=11 / psy=1 / fade_compensate=0.00 / psy_rd=1.00:0.00 / mixed_ref=1 / me_range=32 / chroma_me=1 / trellis=2 / 8x8dct=1 / cqm=0 / deadzone=21,11 / fast_pskip=0 / chroma_qp_offset=-2 / threads=12 / lookahead_threads=3 / sliced_threads=0 / nr=0 / decimate=1 / interlaced=0 / bluray_compat=0 / constrained_intra=0 / fgo=0 / bframes=14 / b_pyramid=2 / b_adapt=2 / b_bias=0 / direct=3 / weightb=1 / open_gop=0 / weightp=2 / keyint=240 / keyint_min=23 / scenecut=40 / intra_refresh=0 / rc_lookahead=60 / rc=crf / mbtree=0 / crf=20.0000 / qcomp=0.65 / qpmin=0:0:0 / qpmax=69:69:69 / qpstep=4 / vbv_maxrate=50000 / vbv_bufsize=62500 / crf_max=0.0 / nal_hrd=none / filler=0 / ip_ratio=1.40 / pb_ratio=1.30 / aq=3:0.90 / aq-sensitivity=10.00 / aq-factor=1.00:1.00:1.00 / aq2=0 / aq3=0
Default : Да
Forced : Нет
Аудио
Идентификатор : 2
Формат : AC-3
Формат/Информация : Audio Coding 3
Расширение режима : CM (complete main)
Параметр Endianness формата : Big
Идентификатор кодека : A_AC3
Продолжительность : 1 ч. 41 м.
Вид битрейта : Постоянный
Битрейт : 384 Кбит/сек
Каналы : 6 каналов
Расположение каналов : Front: L C R, Side: L R, LFE
Частота : 48,0 КГц
Частота кадров : 31,250 кадров/сек (1536 spf)
Метод сжатия : С потерями
Размер потока : 280 Мбайт (21%)
Язык : Russian
Default : Да
Forced : Нет
Общее
Уникальный идентификатор : 253258162635537616637138408260488223367 (0xBE87BF76E6864FBEB0EEF16646355A87)
Полное имя : M:2RipsОбратная сторона ЛуныObratnaja.storona.Luny.s01.2012.BDRip-AVCObratnaja.storona.Luny.s01e02.2012.BDRip-AVC.stalkerok.new-team.mkv
Формат : Matroska
Версия формата : Version 4 / Version 2
Размер файла : 705 Мбайт
Продолжительность : 55 м.
Общий поток : 1781 Кбит/сек
Название фильма : Обратная сторона Луны (2012) (Rip by stalkerok)
Дата кодирования : UTC 2016-07-21 10:52:52
Программа кодирования : mkvmerge v8.6.1 ('Flying') 64bit
Библиотека кодирования : libebml v1.3.3 + libmatroska v1.4.4
Видео
Идентификатор : 1
Формат : AVC
Формат/Информация : Advanced Video Codec
Профиль формата : High@L4.1
Параметр CABAC формата : Да
Параметр ReFrames формата : 14 кадров
Идентификатор кодека : V_MPEG4/ISO/AVC
Продолжительность : 55 м.
Битрейт : 1395 Кбит/сек
Ширина : 960 пикселей
Высота : 540 пикселей
Соотношение сторон : 16:9
Режим частоты кадров : Постоянный
Частота кадров : 23,976 (24000/1001) кадра/сек
Цветовое пространство : YUV
Субдискретизация насыщенности : 4:2:0
Битовая глубина : 8 бит
Тип развёртки : Прогрессивная
Бит/(Пиксели*Кадры) : 0.112
Размер потока : 552 Мбайт (78%)
Заголовок : Обратная сторона Луны (2012) (Rip by stalkerok)
Библиотека кодирования : x264 core 148 r2705+54 9f484c1 t_mod_Custom [8-bit@all X86_64]
Настройки программы : cabac=1 / ref=14 / deblock=1:-3:-2 / analyse=0x3:0x133 / me=umh / subme=11 / psy=1 / fade_compensate=0.00 / psy_rd=1.00:0.00 / mixed_ref=1 / me_range=32 / chroma_me=1 / trellis=2 / 8x8dct=1 / cqm=0 / deadzone=21,11 / fast_pskip=0 / chroma_qp_offset=-2 / threads=12 / lookahead_threads=3 / sliced_threads=0 / nr=0 / decimate=1 / interlaced=0 / bluray_compat=0 / constrained_intra=0 / fgo=0 / bframes=14 / b_pyramid=2 / b_adapt=2 / b_bias=0 / direct=3 / weightb=1 / open_gop=0 / weightp=2 / keyint=240 / keyint_min=23 / scenecut=40 / intra_refresh=0 / rc_lookahead=60 / rc=crf / mbtree=0 / crf=20.0000 / qcomp=0.65 / qpmin=0:0:0 / qpmax=69:69:69 / qpstep=4 / vbv_maxrate=50000 / vbv_bufsize=62500 / crf_max=0.0 / nal_hrd=none / filler=0 / ip_ratio=1.40 / pb_ratio=1.30 / aq=3:0.90 / aq-sensitivity=10.00 / aq-factor=1.00:1.00:1.00 / aq2=0 / aq3=0
Default : Да
Forced : Нет
Аудио
Идентификатор : 2
Формат : AC-3
Формат/Информация : Audio Coding 3
Расширение режима : CM (complete main)
Параметр Endianness формата : Big
Идентификатор кодека : A_AC3
Продолжительность : 55 м.
Вид битрейта : Постоянный
Битрейт : 384 Кбит/сек
Каналы : 6 каналов
Расположение каналов : Front: L C R, Side: L R, LFE
Частота : 48,0 КГц
Частота кадров : 31,250 кадров/сек (1536 spf)
Метод сжатия : С потерями
Задержка видео : 27 мс.
Размер потока : 152 Мбайт (22%)
Язык : Russian
Default : Да
Forced : Нет







   Похожие торренты   Торрент   Размер 
В этой теме нет новых непрочитанных сообщений. Обратная сторона Луны [01-16 из 16] (2012) 2xDVD9 от New-Team | Лицензия

95 | 70

14.95 ГБ

В этой теме нет новых непрочитанных сообщений. Обратная сторона Луны [01-16 из 16] (2012) BDRip

197 | 46

14.31 ГБ

В этой теме нет новых непрочитанных сообщений. Обратная сторона Луны [01-16 из 16] (2012) BDRip-AVC от MediaClub

190 | 57

11.98 ГБ

В этой теме нет новых непрочитанных сообщений. Обратная сторона Луны [01-16 из 16] (2012) Blu-Ray 720p

22 | 16

40.9 ГБ

В этой теме нет новых непрочитанных сообщений. Обратная сторона Луны [01-16 из 16] (2012) SATRip

515 | 102

9.55 ГБ

В этой теме нет новых непрочитанных сообщений. Обратная сторона Луны [01-16 из 16] (2012) SATRip-AVC

81 | 19

9.08 ГБ

В этой теме нет новых непрочитанных сообщений. Обратная сторона Луны [S01] (2012) HDRip от Generalfilm | КПК

671 | 261

4.06 ГБ




Вы не можете начинать темы
Вы не можете отвечать на сообщения
Вы не можете редактировать свои сообщения
Вы не можете удалять свои сообщения
Вы не можете добавлять вложения

Перейти:  
Для Мосгорсуда, Роскомнадзора и рекламодателей: mosgorsud-torrent[собачка]yandex.ru
 Вход
ppkBB3cker v.2 © 2008-2014 @ PPK
[ Time : 14.753s | 15 Queries | GZIP : Off ]
CGP output time : 0.018s | 5 Queries | GZIP : Off

Торрент трекер RUTOR.IN, Не можете зайти на rutor.org? Какой новый адрес рутор? Какое зеркало рутор? Не работает rutor.org и зеркала? Тогда наш торрент специально для вас. Rutor.in неофициальное зеркало rutor. В случае если у Вас заблокирован rutor или вдруг Вы не можете на него зайти, то Вы без труда сможете скачать бесплатно и без рекламы последние новинки кино, игр, сериалов и прочего у нас, на Rutor.in. Не нужно использовать прокси, чтобы зайти на рутор, достаточно воспользоваться нашим ресурсом. Все новые фильмы, игры, сериалы, книги и музыка за 2013 и 2014 годы через торрент бесплатно. Скачивайте фильмы в хорошем качестве, игры для пк, xbox, playstation без регистрации. У нас вы найдете новые Зарубежные сериалы и Русские сериалы 2013, 2014, 2015 годов. Оставайтесь с нами, качайте любимые фильмы, игры, сериалы, книги и музыку.