img image001 image001 image001 image001 image001 image001 image001 image001 image001 image001 image001 image001 image001 image001 image001

Planets Sun Sun Sun
Статистика раздачи
Автор: PriZraK | Размер: 4.34 ГБ | Добавлен: 29 июл 2016
Раздают: 135    Качают: 27
Скачать торрент
Скачать торрент
Описание торрента

СообщениеДобавлено: 29 июл 2016 

Информация о фильме
Название: Откройте,милиция!
Год выпуска: 2008
Производство: Россия,Мотор-фильм
Жанр: Детектив, криминал
Перевод: Не требуется
Режиссёр: Илья Максимов
В ролях: Вера Сотникова, Михаил Мамаев, Елена Полякова, Сергей Мухин, Давид Хугаев, Евгений Кожевников, Евгения Морозова, Вадим Цаллати, Станислав Эрклиевский, Максим Глотов и др...
Описание: К счастью, «улицы разбитых фонарей» остались в прошлом. Да, фонари починили... Но преступники-то никуда не делись! Напротив, день ото дня они становятся все изощреннее, циничнее и наглее. С такими «менту» старой школы, пожалуй, и не совладать. «Продвинутый» криминалитет наших дней могут обуздать только «менты новой формации». Такие, например, как герои нового сериала «Откройте, милиция!» Еще молодые, но уже опытные, отлично подготовленные, умные и неподкупные, они будут ловить жуликов с удвоенной «убойной силой»! В каждой серии героям предстоит расследовать не одно, а сразу два преступления! Новый век - новый ритм. Оторваться будет невозможно!

Файл
Качество: WEBRip
Формат: AVI
Видео кодек: XviD
Аудио кодек: AC3
Видео: Xvid, 720x400 (16:9), ~1478 Kbps
Аудио: AC-3, 48.0 KHz, 2 ch, 192 Kbps
Продолжительность: ~ 00:46:00 серия
Общее
Полное имя : D:Мои фильмыOtkrojte_milicija_1-8iz8_2009_XviD_WEBRip1.Оперативный состав.avi
Формат : AVI
Формат/Информация : Audio Video Interleave
Размер файла : 555 Мбайт
Продолжительность : 46 м.
Общий поток : 1680 Кбит/сек
Библиотека кодирования : VirtualDub build 35491/release
Видео
Идентификатор : 0
Формат : MPEG-4 Visual
Профиль формата : Advanced Simple@L5
Параметр BVOP формата : 2
Параметр QPel формата : Нет
Параметр GMC формата : Без точки перехода
Параметр матрицы формата : Default (H.263)
Идентификатор кодека : XVID
Идентификатор кодека/Подсказка : XviD
Продолжительность : 46 м.
Битрейт : 1478 Кбит/сек
Ширина : 720 пикселей
Высота : 400 пикселей
Соотношение сторон : 16:9
Частота кадров : 25,000 кадров/сек
Цветовое пространство : YUV
Субдискретизация насыщенности : 4:2:0
Битовая глубина : 8 бит
Тип развёртки : Прогрессивная
Метод сжатия : С потерями
Бит/(Пиксели*Кадры) : 0.205
Размер потока : 489 Мбайт (88%)
Библиотека кодирования : XviD 67
Аудио
Идентификатор : 1
Формат : AC-3
Формат/Информация : Audio Coding 3
Расширение режима : CM (complete main)
Параметр Endianness формата : Big
Идентификатор кодека : 2000
Продолжительность : 46 м.
Вид битрейта : Постоянный
Битрейт : 192 Кбит/сек
Каналы : 2 канала
Расположение каналов : Front: L R
Частота : 48,0 КГц
Частота кадров : 31,250 кадров/сек (1536 spf)
Метод сжатия : С потерями
Размер потока : 63,5 Мбайт (11%)
Выравнивание : Соединение по промежуткам
Продолжительность промежутка : 40 мс. (1,00 видеокадр)
Время предзагрузки промежутка : 512 мс.





   Похожие торренты   Торрент   Размер 
В этой теме нет новых непрочитанных сообщений. Откройте, милиция [01-04 из 08] (2008) WEBRip от Files-x

313 | 40

4.62 ГБ

В этой теме нет новых непрочитанных сообщений. Откройте, милиция [01-08 из 08] (2008) WEBRip 1080р от Files-x

45 | 2

7.34 ГБ

В этой теме нет новых непрочитанных сообщений. Настоящая милиция [01-20 из 20] (2010) WEBRip от Generalfilm

0 | 4

2.18 ГБ

В этой теме нет новых непрочитанных сообщений. Откройте дверь, я - СЧАСТЬЕ!! [01-12 из 12] (2008) DVDRip

50 | 32

3.45 ГБ

В этой теме нет новых непрочитанных сообщений. Откройте, это я [01-04] (2011) SATRip

11 | 5

1.84 ГБ

В этой теме нет новых непрочитанных сообщений. Откройте, Дед Мороз! (2007) DVDRip

11 | 4

1.36 ГБ

В этой теме нет новых непрочитанных сообщений. Силовой экстрим. Мисс Олимпия 2008 + конкурс бикини / Ms. Olympia 2008 + Bikini Model Search (2008) WEBRip

0 | 0

793.91 МБ




Вы не можете начинать темы
Вы не можете отвечать на сообщения
Вы не можете редактировать свои сообщения
Вы не можете удалять свои сообщения
Вы не можете добавлять вложения

Перейти:  
Для Мосгорсуда, Роскомнадзора и рекламодателей: mosgorsud-torrent[собачка]yandex.ru
 Вход
ppkBB3cker v.2 © 2008-2014 @ PPK
[ Time : 1.650s | 18 Queries | GZIP : Off ]

Торрент трекер RUTOR.IN, Не можете зайти на rutor.org? Какой новый адрес рутор? Какое зеркало рутор? Не работает rutor.org и зеркала? Тогда наш торрент специально для вас. Rutor.in неофициальное зеркало rutor. В случае если у Вас заблокирован rutor или вдруг Вы не можете на него зайти, то Вы без труда сможете скачать бесплатно и без рекламы последние новинки кино, игр, сериалов и прочего у нас, на Rutor.in. Не нужно использовать прокси, чтобы зайти на рутор, достаточно воспользоваться нашим ресурсом. Все новые фильмы, игры, сериалы, книги и музыка за 2013 и 2014 годы через торрент бесплатно. Скачивайте фильмы в хорошем качестве, игры для пк, xbox, playstation без регистрации. У нас вы найдете новые Зарубежные сериалы и Русские сериалы 2013, 2014, 2015 годов. Оставайтесь с нами, качайте любимые фильмы, игры, сериалы, книги и музыку.