img image001 image001 image001 image001 image001 image001 image001 image001 image001 image001 image001 image001 image001 image001 image001

Planets Sun Sun Sun
Статистика раздачи
Автор: PriZraK | Размер: 25.69 ГБ | Добавлен: 29 июл 2016
Раздают: 9    Качают: 18
Скачать торрент
Скачать торрент
Описание торрента

СообщениеДобавлено: 29 июл 2016 

Название: Мушкетеры
Оригинальное название: The Musketeers
Год выхода: 2015
Страна: Великобритания
Студия: BBC America, BBC Drama Productions, BBC Worldwide
Продолжительность: 10 x ~ 55:00
Жанр: драма, приключения, ...
Режиссер: Люк Паскуалино, Том Бёрк, Ховард Чарльз, Сантьяго Кабрера, Александра Доулинг, Райан Гейдж, Мэйми МакКой, Хьюго Спир, Шарлотта Хоуп, Джулиан Бастида, Эмили Бичем, Филип Броди, Кевин Кларк, Джей Джей Филд, Тамла Кари, Эбигейл Райс, Джеймс Кэллис, Шон Сернов, Фиона Глэскотт, Джим Хай, Энтон Лессер, Саймон Микок, Стюарт Мур, Анна Скеллерн, Эшли Уолтерс, Власта Сваткова, ...
Перевод:
- Профессиональный (многоголосный, закадровый) LostFilm
- Профессиональный (многоголосный, закадровый) NewStudio
О фильме: Мушкетеры собираются на улицах Парижа в семнадцатом веке, где закон и порядок являются больше идеей, чем реальностью. Личные телохранители короля Людовика XIII, Атос, Арамис и Портос решительно стоят за социальную справедливость, за честь, за доблесть, так же за любовь — и за острые ощущения…

Кодек: x264
Качество: BDRip 720p
Видео: 1280x720 , ~5000 kbps, 25 fps
Аудио #1: AC-3, 2 ch, 192 kbps (Rus) - LostFilm
Аудио #2: AC-3, 2 ch, 192 kbps (Rus) - NewStudio
Аудио #3: DTS, 2 ch, 1509 kbps (Eng)
Субтитры: Русские, Английские
Общее
Уникальный идентификатор : 214341138933017708354429889014178218172 (0xA1409A0E2827325AB9E4F72AC2B780BC)
Полное имя : Мушкетеры (The Musketeers) S02 2015 BDRip 720p LostFilm NewStudioThe Musketeers E01 S02 2015 BDRip 720p LostFilm NewStudio.mkv
Формат : Matroska
Версия формата : Version 2
Размер файла : 2,80 Гбайт
Продолжительность : 58 м.
Общий поток : 6842 Кбит/сек
Дата кодирования : UTC 2016-07-26 20:07:08
Программа кодирования : mkvmerge v4.0.0 ('The Stars were mine') сборка от Jun 6 2010 16:18:42
Библиотека кодирования : libebml v1.0.0 + libmatroska v1.0.0
Видео
Идентификатор : 1
Формат : AVC
Формат/Информация : Advanced Video Codec
Профиль формата : High@L4.1
Параметр CABAC формата : Да
Параметр ReFrames формата : 5 кадров
Идентификатор кодека : V_MPEG4/ISO/AVC
Продолжительность : 58 м.
Битрейт : 4947 Кбит/сек
Ширина : 1280 пикселей
Высота : 720 пикселей
Соотношение сторон : 16:9
Режим частоты кадров : Постоянный
Частота кадров : 25,000 кадров/сек
Цветовое пространство : YUV
Субдискретизация насыщенности : 4:2:0
Битовая глубина : 8 бит
Тип развёртки : Прогрессивная
Бит/(Пиксели*Кадры) : 0.215
Размер потока : 1,97 Гбайт (70%)
Библиотека кодирования : x264 core 146 r2538 121396c
Настройки программы : cabac=1 / ref=5 / deblock=1:-2:-2 / analyse=0x3:0x113 / me=umh / subme=8 / psy=1 / psy_rd=1.00:0.00 / mixed_ref=1 / me_range=16 / chroma_me=1 / trellis=1 / 8x8dct=1 / cqm=0 / deadzone=21,11 / fast_pskip=1 / chroma_qp_offset=-2 / threads=6 / lookahead_threads=1 / sliced_threads=0 / nr=0 / decimate=1 / interlaced=0 / bluray_compat=0 / constrained_intra=0 / bframes=3 / b_pyramid=2 / b_adapt=2 / b_bias=0 / direct=3 / weightb=1 / open_gop=0 / weightp=2 / keyint=250 / keyint_min=25 / scenecut=40 / intra_refresh=0 / rc_lookahead=50 / rc=2pass / mbtree=1 / bitrate=4947 / ratetol=1.0 / qcomp=0.60 / qpmin=0 / qpmax=69 / qpstep=4 / cplxblur=20.0 / qblur=0.5 / ip_ratio=1.40 / aq=1:1.00
Язык : English
Default : Нет
Forced : Нет
Аудио #1
Идентификатор : 2
Формат : AC-3
Формат/Информация : Audio Coding 3
Расширение режима : CM (complete main)
Параметр Endianness формата : Big
Идентификатор кодека : A_AC3
Продолжительность : 58 м.
Вид битрейта : Постоянный
Битрейт : 192 Кбит/сек
Каналы : 2 канала
Расположение каналов : Front: L R
Частота : 48,0 КГц
Частота кадров : 31,250 кадров/сек (1536 spf)
Метод сжатия : С потерями
Размер потока : 80,5 Мбайт (3%)
Заголовок : LostFilm
Язык : Russian
Default : Нет
Forced : Нет
Аудио #2
Идентификатор : 3
Формат : AC-3
Формат/Информация : Audio Coding 3
Расширение режима : CM (complete main)
Параметр Endianness формата : Big
Идентификатор кодека : A_AC3
Продолжительность : 58 м.
Вид битрейта : Постоянный
Битрейт : 192 Кбит/сек
Каналы : 2 канала
Расположение каналов : Front: L R
Частота : 48,0 КГц
Частота кадров : 31,250 кадров/сек (1536 spf)
Метод сжатия : С потерями
Размер потока : 80,5 Мбайт (3%)
Заголовок : NewStudio
Язык : Russian
Default : Нет
Forced : Нет
Аудио #3
Идентификатор : 4
Формат : DTS
Формат/Информация : Digital Theater Systems
Режим : 16
Параметр Endianness формата : Big
Идентификатор кодека : A_DTS
Продолжительность : 58 м.
Вид битрейта : Постоянный
Битрейт : 1509 Кбит/сек
Каналы : 2 канала
Расположение каналов : Front: L R
Частота : 48,0 КГц
Частота кадров : 93,750 кадра/сек (512 spf)
Битовая глубина : 24 бит
Метод сжатия : С потерями
Задержка видео : 11 мс.
Размер потока : 633 Мбайт (22%)
Язык : English
Default : Нет
Forced : Нет
Текст #1
Идентификатор : 5
Формат : UTF-8
Идентификатор кодека : S_TEXT/UTF8
Идентификатор кодека/Информация : UTF-8 Plain Text
Язык : Russian
Default : Нет
Forced : Нет
Текст #2
Идентификатор : 6
Формат : UTF-8
Идентификатор кодека : S_TEXT/UTF8
Идентификатор кодека/Информация : UTF-8 Plain Text
Язык : English
Default : Нет
Forced : Нет





   Похожие торренты   Торрент   Размер 
В этой теме нет новых непрочитанных сообщений. Мушкетеры / The Musketeers [S03] (2016) WEB-DL 1080p | LostFilm, NewStudio

26 | 15

22.36 ГБ

В этой теме нет новых непрочитанных сообщений. Мушкетеры / The Musketeers [02x01-04 из 10] (2015) HDTV 720p | NewStudio

15 | 33

5.71 ГБ

В этой теме нет новых непрочитанных сообщений. Мушкетеры / The Musketeers [02x01-04 из 10] (2015) HDTV 720p | NewStudio

4 | 6

5.71 ГБ

В этой теме нет новых непрочитанных сообщений. Мушкетеры / The Musketeers [02x01-02 из 10] (2015) HDTV 720p | NewStudio

145 | 133

3.05 ГБ

В этой теме нет новых непрочитанных сообщений. Мушкетеры / The Musketeers [02x01-05 из 10] (2015) HDTV 720p | NewStudio

21 | 33

7.12 ГБ

В этой теме нет новых непрочитанных сообщений. Мушкетеры / The Musketeers [02x01-06 из 10] (2015) HDTV 720p | NewStudio

26 | 24

8.32 ГБ

В этой теме нет новых непрочитанных сообщений. Мушкетеры / The Musketeers [02x01-07 из 10] (2015) HDTV 720p | NewStudio

10 | 23

9.54 ГБ




Вы не можете начинать темы
Вы не можете отвечать на сообщения
Вы не можете редактировать свои сообщения
Вы не можете удалять свои сообщения
Вы не можете добавлять вложения

Перейти:  
Для Мосгорсуда, Роскомнадзора и рекламодателей: mosgorsud-torrent[собачка]yandex.ru
 Вход
ppkBB3cker v.2 © 2008-2014 @ PPK
[ Time : 0.053s | 16 Queries | GZIP : Off ]

Торрент трекер RUTOR.IN, Не можете зайти на rutor.org? Какой новый адрес рутор? Какое зеркало рутор? Не работает rutor.org и зеркала? Тогда наш торрент специально для вас. Rutor.in неофициальное зеркало rutor. В случае если у Вас заблокирован rutor или вдруг Вы не можете на него зайти, то Вы без труда сможете скачать бесплатно и без рекламы последние новинки кино, игр, сериалов и прочего у нас, на Rutor.in. Не нужно использовать прокси, чтобы зайти на рутор, достаточно воспользоваться нашим ресурсом. Все новые фильмы, игры, сериалы, книги и музыка за 2013 и 2014 годы через торрент бесплатно. Скачивайте фильмы в хорошем качестве, игры для пк, xbox, playstation без регистрации. У нас вы найдете новые Зарубежные сериалы и Русские сериалы 2013, 2014, 2015 годов. Оставайтесь с нами, качайте любимые фильмы, игры, сериалы, книги и музыку.