img image001 image001 image001 image001 image001 image001 image001 image001 image001 image001 image001 image001 image001 image001 image001

Planets Sun Sun Sun
Статистика раздачи
Автор: Nickolas3434 | Размер: 17.81 ГБ | Добавлен: 05 авг 2016
Раздают: 6    Качают: 13
Скачать торрент
Скачать торрент
Описание торрента

СообщениеДобавлено: 05 авг 2016 


Информация о фильме
Название: Волчий зал
Оригинальное название: Wolf Hall
Год выхода: 2015
Жанр: Драма, экранизация
Режиссер: Питер Козмински
В ролях: Марк Райлэнс, Дэмиэн Льюис, Клэр Фой, Джонатан Прайс, Саскиа Ривз, Кейт Филипс, Бернард Хилл, Ричард Диллан, Гарри Ллойд, Дейвид Робб, Макрк Гатисс, Энтон Лессер, Черити Уэйкфилд, Энцо Чиленти
О фильме: Англия в 1520 году на грани катастрофы. Если король умрет, не оставив наследника мужского пола, страна будет уничтожена Гражданской войной. Генрих VIII хочет аннулировать свой брак с Екатериной Арагонской, а папа и некоторые европейские монархи противостоят этому. Но в борьбу за своего короля и собственные амбиции вступает Томас Кромвель, необычный, харизматичный, амбициозный идеалист и нигилист.
Продолжительность: 6 x ~ 01:00:00
Перевод: Профессиональный многоголосый
Файл
Кодек: MPEG-2
Качество: DVD-9
Видео: MPEG2, NTSC 16:9 (720x480@853x480) VBR, 29,970 кадров/сек
Звук: Русский, Английский DD 2.0 (192 Kbps)
Title:
Size: 6.11 Gb ( 6 405 388 KBytes ) - DVD-9
Enabled regions: 1, 2, 3, 4, 5, 6, 7, 8
VTS_01 :
Play Length: 01:04:06+00:59:00
Video: NTSC 16:9 (720x480) VBR, Auto Pan&Scan
Audio:
Russian (Dolby AC3, 2 ch)
English (Dolby AC3, 2 ch)
Menu Video:
NTSC 4:3 (704x480) VBR
Menu English Language Unit :
Root Menu
Общее
Полное имя : D:ААА2ВОЛЧИЙ ЗАЛДИСК 1VIDEO_TSVTS_01_1.VOB
Формат : MPEG-PS
Размер файла : 1000 Мбайт
Продолжительность : 20 м.
Режим общего битрейта : Переменный
Общий поток : 6985 Кбит/сек
Видео
Идентификатор : 224 (0xE0)
Формат : MPEG Video
Версия формата : Version 2
Профиль формата : Main@Main
Параметр BVOP формата : Да
Параметр матрицы формата : По умолчанию
Параметр GOP формата : M=3, N=13
Продолжительность : 20 м.
Вид битрейта : Переменный
Битрейт : 6270 Кбит/сек
Максимальный битрейт : 8832 Кбит/сек
Ширина : 720 пикселей
Высота : 480 пикселей
Соотношение сторон : 16:9
Частота кадров : 29,970 кадров/сек
Стандарт вещания : NTSC
Цветовое пространство : YUV
Субдискретизация насыщенности : 4:2:0
Битовая глубина : 8 бит
Тип развёртки : Прогрессивная
Метод сжатия : С потерями
Бит/(Пиксели*Кадры) : 0.605
TimeCode_FirstFrame : 00:00:00;00
TimeCode_Source : Group of pictures header
Размер потока : 898 Мбайт (90%)
Аудио #1
Идентификатор : 189 (0xBD)-128 (0x80)
Формат : AC-3
Формат/Информация : Audio Coding 3
Расширение режима : CM (complete main)
Параметр Endianness формата : Big
Режим смешивания : DVD-Video
Продолжительность : 20 м.
Вид битрейта : Постоянный
Битрейт : 192 Кбит/сек
Каналы : 2 канала
Расположение каналов : Front: L R
Частота : 48,0 КГц
Битовая глубина : 16 бит
Метод сжатия : С потерями
Размер потока : 27,5 Мбайт (3%)
Аудио #2
Идентификатор : 189 (0xBD)-129 (0x81)
Формат : AC-3
Формат/Информация : Audio Coding 3
Расширение режима : CM (complete main)
Параметр Endianness формата : Big
Режим смешивания : DVD-Video
Продолжительность : 20 м.
Вид битрейта : Постоянный
Битрейт : 384 Кбит/сек
Каналы : 2 канала
Расположение каналов : Front: L R
Частота : 48,0 КГц
Битовая глубина : 16 бит
Метод сжатия : С потерями
Размер потока : 55,0 Мбайт (5%)
Меню



Релиз:



   Похожие торренты   Торрент   Размер 
В этой теме нет новых непрочитанных сообщений. Волчий зал / Wolf Hall [s01] (2015) HDTVRip | L2

463 | 94

4.1 ГБ

В этой теме нет новых непрочитанных сообщений. Волчий Отряд / Wolf Team (2011) PC

14 | 5

713.25 МБ

В этой теме нет новых непрочитанных сообщений. Тайна Крикли Холла / The Secret of Crickley Hall [01x01-03 из 3] (2012) WEB-DLRip Sauliux

13 | 7

1.99 ГБ

В этой теме нет новых непрочитанных сообщений. Волчья яма / Wolf Creek [01x01 из 06] (2016) WEBRip | ViruseProject

3 | 1

663.85 МБ

В этой теме нет новых непрочитанных сообщений. Волчья яма / Wolf Creek [01x01 из 06] (2016) WEBRip 720р | ViruseProject

5 | 0

960.57 МБ

В этой теме нет новых непрочитанных сообщений. Волчья яма / Wolf Creek [01x01-04 из 06] (2016) WEB-DLRip 720p от Project Web Mania | L1

13 | 3

1.53 ГБ

В этой теме нет новых непрочитанных сообщений. Волчий остров / Тот, кого нет (2013) DVB от Files-x

18 | 4

2.3 ГБ




Вы не можете начинать темы
Вы не можете отвечать на сообщения
Вы не можете редактировать свои сообщения
Вы не можете удалять свои сообщения
Вы не можете добавлять вложения

Перейти:  
Для Мосгорсуда, Роскомнадзора и рекламодателей: mosgorsud-torrent[собачка]yandex.ru
 Вход
ppkBB3cker v.2 © 2008-2014 @ PPK
[ Time : 0.039s | 15 Queries | GZIP : Off ]

Торрент трекер RUTOR.IN, Не можете зайти на rutor.org? Какой новый адрес рутор? Какое зеркало рутор? Не работает rutor.org и зеркала? Тогда наш торрент специально для вас. Rutor.in неофициальное зеркало rutor. В случае если у Вас заблокирован rutor или вдруг Вы не можете на него зайти, то Вы без труда сможете скачать бесплатно и без рекламы последние новинки кино, игр, сериалов и прочего у нас, на Rutor.in. Не нужно использовать прокси, чтобы зайти на рутор, достаточно воспользоваться нашим ресурсом. Все новые фильмы, игры, сериалы, книги и музыка за 2013 и 2014 годы через торрент бесплатно. Скачивайте фильмы в хорошем качестве, игры для пк, xbox, playstation без регистрации. У нас вы найдете новые Зарубежные сериалы и Русские сериалы 2013, 2014, 2015 годов. Оставайтесь с нами, качайте любимые фильмы, игры, сериалы, книги и музыку.