img image001 image001 image001 image001 image001 image001 image001 image001 image001 image001 image001 image001 image001 image001 image001

Planets Sun Sun Sun
Статистика раздачи
Автор: PriZraK | Размер: 35.26 ГБ | Добавлен: 11 авг 2016
Раздают: 18    Качают: 27
Скачать торрент
Скачать торрент
Описание торрента

СообщениеДобавлено: 11 авг 2016 

Название: Дурман
Оригинальное название: Weeds
Год выхода: 2009
Страна: США
Студия: Lions Gate Television, Tilted Productions, Weeds Productions
Продолжительность: 13 x ~ 28:00
Жанр: драма, комедия, криминал, ...
Режиссер: Крейг Зиск, Майкл Трим, Скотт Эллис, ...
В ролях: Мэри-Луиз Паркер, Хантер Пэрриш, Александр Гулд, Кевин Нилон, Джастин Кирк, Элизабет Перкинс, Элли Грант, Энди Милдер, Тони Патано, Романи Малко, Демиан Бишир, Энрике Кастильо, Молик Панчоли, Индиго, Гильермо Диас, Рени Виктор, Джек Стелин, Мартин Донован, Бекки Тая, Мэттью Модайн, Шошанна Штерн, Пейдж Кеннеди, Фацо-Фасано, Брюс Нозик, Майкл Харни, ...
Перевод:
- Профессиональный (многоголосный, закадровый) Fox Life
- Субтитры
О фильме: Нэнси вдова с двумя весьма оригинальными детьми. Старший, Сайлас, мальчик умный и интересный, с постоянными проблемами на любовном фронте, младший, Шейн — это вообще отдельная песня, за мамой он ходит постоянно и просит дать ему антидепрессанты, причем в больших количествах.
Нэнси не нашла никакого другого способа прокормить семью, как начать торговать марихуаной, которую ей подбрасывает семейка афроамериканцев, где всем заправляет Хейлия, а помогает весьма неравнодушный к Нэнси парень Конрад.
У Нэнси начали отовариваться все ее соседи — адвокаты, финансисты и прочие личности. В общем, можете себе представить эту картину, здорово приправленную черным юмором, замечательными комедийными вставками и трагикомическими поворотами.…

Кодек: x264
Качество: BDRip 1080p
Видео: 1920x1080 , 12300 kbps, 23,976 fps
Аудио #1: AC-3, 2 ch, 192 kbps (Rus) - MVO Fox Life
Аудио #2: DTS, 6 ch, 1509 kbps (Eng)
Субтитры: Русские, Английские
Общее
Уникальный идентификатор : 226262810347485749766608381327171236857 (0xAA38A1D63792CA8388EBF15E325DB3F9)
Полное имя : Weeds E01 S05 2009 BDRip 1080p FoxLife.mkv
Формат : Matroska
Версия формата : Version 2
Размер файла : 2,88 Гбайт
Продолжительность : 29 м.
Режим общего битрейта : Переменный
Общий поток : 14,2 Мбит/сек
Дата кодирования : UTC 2016-08-11 06:08:04
Программа кодирования : mkvmerge v4.0.0 ('The Stars were mine') сборка от Jun 6 2010 16:18:42
Библиотека кодирования : libebml v1.0.0 + libmatroska v1.0.0
Видео
Идентификатор : 1
Формат : AVC
Формат/Информация : Advanced Video Codec
Профиль формата : High@L4.1
Параметр CABAC формата : Да
Параметр ReFrames формата : 3 кадра
Идентификатор кодека : V_MPEG4/ISO/AVC
Продолжительность : 29 м.
Вид битрейта : Переменный
Битрейт : 12,3 Мбит/сек
Максимальный битрейт : 25,0 Мбит/сек
Ширина : 1920 пикселей
Высота : 1080 пикселей
Соотношение сторон : 16:9
Режим частоты кадров : Постоянный
Частота кадров : 23,976 (24000/1001) кадра/сек
Цветовое пространство : YUV
Субдискретизация насыщенности : 4:2:0
Битовая глубина : 8 бит
Тип развёртки : Прогрессивная
Бит/(Пиксели*Кадры) : 0.247
Размер потока : 2,44 Гбайт (85%)
Библиотека кодирования : x264 core 80 r1376kGIT 3feaec2
Настройки программы : cabac=1 / ref=3 / deblock=1:0:0 / analyse=0x3:0x133 / me=umh / subme=7 / psy=1 / psy_rd=1.0:0.0 / mixed_ref=1 / me_range=16 / chroma_me=1 / trellis=1 / 8x8dct=1 / cqm=0 / deadzone=21,11 / fast_pskip=1 / chroma_qp_offset=-2 / threads=12 / sliced_threads=0 / nr=0 / decimate=1 / mbaff=0 / constrained_intra=0 / bframes=3 / b_pyramid=0 / b_adapt=1 / b_bias=0 / direct=1 / wpredb=1 / wpredp=2 / keyint=240 / keyint_min=24 / scenecut=40 / rc_lookahead=40 / rc=2pass / mbtree=1 / bitrate=12288 / ratetol=1.0 / qcomp=0.60 / qpmin=10 / qpmax=51 / qpstep=4 / cplxblur=20.0 / qblur=0.5 / vbv_maxrate=25000 / vbv_bufsize=25000 / ip_ratio=1.40 / aq=1:1.00
Язык : English
Default : Нет
Forced : Нет
Аудио #1
Идентификатор : 2
Формат : AC-3
Формат/Информация : Audio Coding 3
Расширение режима : CM (complete main)
Параметр Endianness формата : Big
Идентификатор кодека : A_AC3
Продолжительность : 29 м.
Вид битрейта : Постоянный
Битрейт : 192 Кбит/сек
Каналы : 2 канала
Расположение каналов : Front: L R
Частота : 48,0 КГц
Частота кадров : 31,250 кадров/сек (1536 spf)
Метод сжатия : С потерями
Размер потока : 40,0 Мбайт (1%)
Заголовок : Fox Life
Язык : Russian
Default : Нет
Forced : Нет
Аудио #2
Идентификатор : 3
Формат : AC-3
Формат/Информация : Audio Coding 3
Расширение режима : CM (complete main)
Параметр Endianness формата : Big
Идентификатор кодека : A_AC3
Продолжительность : 29 м.
Вид битрейта : Постоянный
Битрейт : 192 Кбит/сек
Каналы : 2 канала
Расположение каналов : Front: L R
Частота : 48,0 КГц
Частота кадров : 31,250 кадров/сек (1536 spf)
Метод сжатия : С потерями
Размер потока : 40,0 Мбайт (1%)
Заголовок : ProjektorShow
Язык : Russian
Default : Нет
Forced : Нет
Аудио #3
Идентификатор : 4
Формат : DTS
Формат/Информация : Digital Theater Systems
Режим : 16
Параметр Endianness формата : Big
Идентификатор кодека : A_DTS
Продолжительность : 29 м.
Вид битрейта : Постоянный
Битрейт : 1509 Кбит/сек
Каналы : 6 каналов
Расположение каналов : Front: L C R, Side: L R, LFE
Частота : 48,0 КГц
Частота кадров : 93,750 кадра/сек (512 spf)
Битовая глубина : 24 бит
Метод сжатия : С потерями
Задержка видео : 11 мс.
Размер потока : 314 Мбайт (11%)
Язык : English
Default : Нет
Forced : Нет
Текст #1
Идентификатор : 5
Формат : UTF-8
Идентификатор кодека : S_TEXT/UTF8
Идентификатор кодека/Информация : UTF-8 Plain Text
Язык : Russian
Default : Нет
Forced : Нет
Текст #2
Идентификатор : 6
Формат : UTF-8
Идентификатор кодека : S_TEXT/UTF8
Идентификатор кодека/Информация : UTF-8 Plain Text
Язык : English
Default : Нет
Forced : Нет





   Похожие торренты   Торрент   Размер 
В этой теме нет новых непрочитанных сообщений. Дурман / Weeds [S01] (2005) BDRip 1080p | P, A

29 | 66

28.63 ГБ

В этой теме нет новых непрочитанных сообщений. Дурман / Weeds [S07] (2011) BDRip 1080p | P

15 | 18

28.89 ГБ

В этой теме нет новых непрочитанных сообщений. Дурман / Weeds [S04] (2008) BDRip 1080p | P

11 | 13

35.45 ГБ

В этой теме нет новых непрочитанных сообщений. Дурман / Weeds [S08] (2012) BDRip 1080p | P, L1

14 | 15

30.45 ГБ

В этой теме нет новых непрочитанных сообщений. Дурман / Weeds [S02] (2006) BDRip 1080p | P, A

18 | 28

33.52 ГБ

В этой теме нет новых непрочитанных сообщений. Дурман / Weeds [S06] (2010) BDRip 1080p | P

11 | 19

28.86 ГБ

В этой теме нет новых непрочитанных сообщений. Дурман / Weeds [S03] (2007) BDRip 1080p | P, A

15 | 18

38.96 ГБ




Вы не можете начинать темы
Вы не можете отвечать на сообщения
Вы не можете редактировать свои сообщения
Вы не можете удалять свои сообщения
Вы не можете добавлять вложения

Перейти:  
Для Мосгорсуда, Роскомнадзора и рекламодателей: mosgorsud-torrent[собачка]yandex.ru
 Вход
ppkBB3cker v.2 © 2008-2014 @ PPK
[ Time : 0.049s | 15 Queries | GZIP : Off ]

Торрент трекер RUTOR.IN, Не можете зайти на rutor.org? Какой новый адрес рутор? Какое зеркало рутор? Не работает rutor.org и зеркала? Тогда наш торрент специально для вас. Rutor.in неофициальное зеркало rutor. В случае если у Вас заблокирован rutor или вдруг Вы не можете на него зайти, то Вы без труда сможете скачать бесплатно и без рекламы последние новинки кино, игр, сериалов и прочего у нас, на Rutor.in. Не нужно использовать прокси, чтобы зайти на рутор, достаточно воспользоваться нашим ресурсом. Все новые фильмы, игры, сериалы, книги и музыка за 2013 и 2014 годы через торрент бесплатно. Скачивайте фильмы в хорошем качестве, игры для пк, xbox, playstation без регистрации. У нас вы найдете новые Зарубежные сериалы и Русские сериалы 2013, 2014, 2015 годов. Оставайтесь с нами, качайте любимые фильмы, игры, сериалы, книги и музыку.