img image001 image001 image001 image001 image001 image001 image001 image001 image001 image001 image001 image001 image001 image001 image001

Planets Sun Sun Sun
Статистика раздачи
Автор: PriZraK | Размер: 13.57 ГБ | Добавлен: 20 авг 2016
Раздают: 52    Качают: 20
Скачать торрент
Скачать торрент
Описание торрента

СообщениеДобавлено: 20 авг 2016 

Информация о фильме
Название: Меч
Год выпуска: 2009
Производство: Россия , DixiMedia
Жанр: Боевик, криминал
Перевод: Не требуется
Режиссёр: Рустам Уразаев, Виктор Конисевич
В ролях: Эдуард Флёров, Роман Курцын, Тимур Ефременков, Дарья Повереннова, Виктория Фишер, Александр Баринов, Нина Гогаева, Владислав Павлов, Александр Фисенко, Шухрат Иргашев и др.
Описание: Москва, 2009 год. Максу Калинину 35 лет, он бывший офицер разведки ВДВ, оперативник УБОП. После 10 лет работы его увольняют со службы по фиктивному обвинению, без права в дальнейшем работать в органах правопорядка, а опасный преступник выходит на свободуе без предъявления обвинения. Это Калинин не может простить. Проследив за отпущенным на свободу преступником, Калинин в тот же вечер вершит собственное правосудие, убивая его. С этого дня Калинин понимает, чем он будет заниматься, — он будет бороться с беззаконием своими методами. И ЗАКОН у него будет свой... И НАКАЗАНИЕ только одно — смерть... Калинин собирает команду из таких же как и он. Преступные деньги, которыми удается завладеть, бойцы оставляют себе и постепенно маленькая команда, превращается в опасную карательную организацию, которую бояться все и теперь они находятся между двух зол — криминального мира, который объявляет огромные деньги за их «головы» и своих бывших коллег, которые начинают охоту на «оборотней»...

Файл
Качество: WEBRip
Формат: AVI
Видео кодек: XviD
Аудио кодек: AC3
Видео: 720x400, 25.000 fps, 1 419 Kbps Kbps
Аудио: AC-3, 48.0 KHz, 2 ch, 192 Kbps
Продолжительность: 25 x ~ 00:48:00
Общее
Полное имя : D:Мои фильмыMech_S1_1-25iz25_2009_XviD_DVDRip1.Приговор.avi
Формат : AVI
Формат/Информация : Audio Video Interleave
Размер файла : 555 Мбайт
Продолжительность : 47 м.
Общий поток : 1620 Кбит/сек
Программа кодирования : VirtualDubMod 1.5.10.3 www.virtualdub-fr.org | (build 2550/release)
Библиотека кодирования : VirtualDub build 35491/release
Видео
Идентификатор : 0
Формат : MPEG-4 Visual
Профиль формата : Advanced Simple@L5
Параметр BVOP формата : 2
Параметр QPel формата : Нет
Параметр GMC формата : Без точки перехода
Параметр матрицы формата : Default (H.263)
Идентификатор кодека : XVID
Идентификатор кодека/Подсказка : XviD
Продолжительность : 47 м.
Битрейт : 1419 Кбит/сек
Ширина : 720 пикселей
Высота : 400 пикселей
Соотношение сторон : 16:9
Частота кадров : 25,000 кадров/сек
Цветовое пространство : YUV
Субдискретизация насыщенности : 4:2:0
Битовая глубина : 8 бит
Тип развёртки : Прогрессивная
Метод сжатия : С потерями
Бит/(Пиксели*Кадры) : 0.197
Размер потока : 486 Мбайт (88%)
Библиотека кодирования : XviD 67
Аудио
Идентификатор : 1
Формат : AC-3
Формат/Информация : Audio Coding 3
Расширение режима : CM (complete main)
Параметр Endianness формата : Big
Идентификатор кодека : 2000
Продолжительность : 47 м.
Вид битрейта : Постоянный
Битрейт : 192 Кбит/сек
Каналы : 2 канала
Расположение каналов : Front: L R
Частота : 48,0 КГц
Частота кадров : 31,250 кадров/сек (1536 spf)
Метод сжатия : С потерями
Размер потока : 65,8 Мбайт (12%)
Выравнивание : Соединение по промежуткам
Продолжительность промежутка : 40 мс. (1,00 видеокадр)
Время предзагрузки промежутка : 512 мс.





   Похожие торренты   Торрент   Размер 
В этой теме нет новых непрочитанных сообщений. Кино за 2009 / Cinema 2009 (2009) WebRip

0 | 2

178.41 МБ

В этой теме нет новых непрочитанных сообщений. Бог войны 2 / God of War 2 (2009) WEBRip

15 | 9

3.22 ГБ

В этой теме нет новых непрочитанных сообщений. Адвокат [S06] (2009) WEBRip-AVC

4 | 0

8.56 ГБ

В этой теме нет новых непрочитанных сообщений. Rammstein - Ich Tu Dir Weh (2009) WebRip

1 | 3

46.15 МБ

В этой теме нет новых непрочитанных сообщений. Вызов [S04] (2009) WEBRip-AVC

117 | 74

4.83 ГБ

В этой теме нет новых непрочитанных сообщений. Святыня / The Sanctuary (2009) WEBRip | L2

0 | 0

700.04 МБ

В этой теме нет новых непрочитанных сообщений. Вызов [S01-S04] (2005-2009) WEBRip-AVC

32 | 10

27.19 ГБ




Вы не можете начинать темы
Вы не можете отвечать на сообщения
Вы не можете редактировать свои сообщения
Вы не можете удалять свои сообщения
Вы не можете добавлять вложения

Перейти:  
Для Мосгорсуда, Роскомнадзора и рекламодателей: mosgorsud-torrent[собачка]yandex.ru
 Вход
ppkBB3cker v.2 © 2008-2014 @ PPK
[ Time : 0.050s | 17 Queries | GZIP : Off ]

Торрент трекер RUTOR.IN, Не можете зайти на rutor.org? Какой новый адрес рутор? Какое зеркало рутор? Не работает rutor.org и зеркала? Тогда наш торрент специально для вас. Rutor.in неофициальное зеркало rutor. В случае если у Вас заблокирован rutor или вдруг Вы не можете на него зайти, то Вы без труда сможете скачать бесплатно и без рекламы последние новинки кино, игр, сериалов и прочего у нас, на Rutor.in. Не нужно использовать прокси, чтобы зайти на рутор, достаточно воспользоваться нашим ресурсом. Все новые фильмы, игры, сериалы, книги и музыка за 2013 и 2014 годы через торрент бесплатно. Скачивайте фильмы в хорошем качестве, игры для пк, xbox, playstation без регистрации. У нас вы найдете новые Зарубежные сериалы и Русские сериалы 2013, 2014, 2015 годов. Оставайтесь с нами, качайте любимые фильмы, игры, сериалы, книги и музыку.
cron