img image001 image001 image001 image001 image001 image001 image001 image001 image001 image001 image001 image001 image001 image001 image001

Planets Sun Sun Sun
Статистика раздачи
Автор: PriZraK | Размер: 21.09 ГБ | Добавлен: 24 авг 2016
Раздают: 4    Качают: 5
Скачать торрент
Скачать торрент
Описание торрента

СообщениеДобавлено: 24 авг 2016 

Информация о фильме
Название: Байки из склепа
Оригинальное название: Tales from the Crypt
Год выхода: 1991
Жанр: США, Home Box Office (HBO)
Режиссер: Роберт Земекис / Robert Zemeckis
В ролях: Уильям Сэдлер, Маршалл Белл, Джо Пантольяно, Лиа Томпсон, Бретт Каллен, Аманда Пламмер, Стивен Шеллен, М. Эммет Уолш, Деми Мур, Мигель Феррер, Игги Поп, Патриция Аркетт, Грейс Забриски
О фильме:
«Байки из склепа» — телесериал, созданный по мотивам комиксов Уильяма М. Гейнса, составленный из более чем полусотни сюжетов, представляющих собой короткие страшно юморные истории, рассказанные от лица симпатичного обитателя склепа, сопровождаемые его едкими, зловонными комментариями. Помните — смех продлевает жизнь, а постоянный страх сделает вас бессмертным.

Страна: США
Студия: Home Box Office (HBO)
Продолжительность: 14 x ~ 00:26:00
Перевод #1: Авторский (одноголосый, закадровый) Антон Карповский
Перевод #1: Авторский (одноголосый, закадровый) Сергей Визгунов
Перевод #1: Авторский (одноголосый, закадровый) Юрий Немахов
Файл
Кодек: MPEG2
Качество: DVD9
Видео: NTSC 4:3 (720x480)
Аудио #1 : AC3, 2/0ch, 192Kbps, Delay 0 mSec - Карповский
Аудио #2: AC3, 2/0ch, 192Kbps, Delay 0 mSec - Визгунов
Аудио #3: AC3, 2/0ch, 192Kbps, Delay 0 mSec - Немахов
Аудио #4: AC3, 2/0ch, 192Kbps, Delay 0 mSec - Оригинал (Английский)
Субтитры: Нет
Формат : MPEG-PS
Размер файла : 1024 Мбайт
Продолжительность : 24 м.
Общий поток : 5746 Кбит/сек
Видео
Идентификатор : 224 (0xE0)
Формат : MPEG Video
Версия формата : Version 2
Профиль формата : Main@Main
Параметр BVOP формата : Да
Параметр матрицы формата : По умолчанию
Продолжительность : 24 м.
Вид битрейта : Переменный
Битрейт : 5248 Кбит/сек
Номинальный битрейт : 9800 Кбит/сек
Ширина : 720 пикс.
Высота : 480 пикс.
Соотношение сторон : 4:3
Частота кадров : 23,976 кадр/сек
Стандарт вещания : NTSC
Цветовое пространство : YUV
Подвыборка цветности : 4:2:0
Битовая глубина : 8 бит
Тип развёртки : Прогрессивная
Порядок развёртки : 2:3 Pulldown
Метод сжатия : С потерями
Бит/(Пиксели*Кадры) : 0.633
Размер потока : 935 Мбайт (91%)
Аудио #1
Идентификатор : 189 (0xBD)-128 (0x80)
Формат : AC-3
Формат/Информация : Audio Coding 3
Профиль формата : Dolby Digital
Расширение режима : CM (complete main)
Режим смешивания : DVD-Video
Продолжительность : 24 м.
Вид битрейта : Постоянный
Битрейт : 192 Кбит/сек
Канал(ы) : 2 канала(ов)
Расположение каналов : Front: L R
Частота : 48,0 КГц
Битовая глубина : 16 бит
Метод сжатия : С потерями
Задержка видео : -343 мс.
Размер потока : 34,2 Мбайт (3%)
Аудио #2
Идентификатор : 189 (0xBD)-128 (0x80)
Формат : AC-3
Формат/Информация : Audio Coding 3
Профиль формата : Dolby Digital
Расширение режима : CM (complete main)
Режим смешивания : DVD-Video
Продолжительность : 24 м.
Вид битрейта : Постоянный
Битрейт : 192 Кбит/сек
Канал(ы) : 2 канала(ов)
Расположение каналов : Front: L R
Частота : 48,0 КГц
Битовая глубина : 16 бит
Метод сжатия : С потерями
Задержка видео : -343 мс.
Размер потока : 34,2 Мбайт (3%)
Аудио #3
Идентификатор : 189 (0xBD)-128 (0x80)
Формат : AC-3
Формат/Информация : Audio Coding 3
Профиль формата : Dolby Digital
Расширение режима : CM (complete main)
Режим смешивания : DVD-Video
Продолжительность : 24 м.
Вид битрейта : Постоянный
Битрейт : 192 Кбит/сек
Канал(ы) : 2 канала(ов)
Расположение каналов : Front: L R
Частота : 48,0 КГц
Битовая глубина : 16 бит
Метод сжатия : С потерями
Задержка видео : -343 мс.
Размер потока : 34,2 Мбайт (3%)
Аудио #4
Идентификатор : 189 (0xBD)-129 (0x81)
Формат : AC-3
Формат/Информация : Audio Coding 3
Профиль формата : Dolby Digital
Расширение режима : CM (complete main)
Режим смешивания : DVD-Video
Продолжительность : 24 м.
Вид битрейта : Постоянный
Битрейт : 192 Кбит/сек
Канал(ы) : 2 канала(ов)
Расположение каналов : Front: L R
Частота : 48,0 КГц
Битовая глубина : 16 бит
Метод сжатия : С потерями
Задержка видео : -343 мс.
Размер потока : 34,2 Мбайт (3%)
Текст #1
Идентификатор : 189 (0xBD)-32 (0x20)
Формат : RLE
Формат/Информация : Run-length encoding
Режим смешивания : DVD-Video
Продолжительность : 24 м.
Задержка видео : 1 с. 785 мс.
Текст #2
Идентификатор : 189 (0xBD)-33 (0x21)
Формат : RLE
Формат/Информация : Run-length encoding
Режим смешивания : DVD-Video
Продолжительность : 24 м.
Задержка видео : 1 с. 785 мс.
Текст #3
Идентификатор : 189 (0xBD)-34 (0x22)
Формат : RLE
Формат/Информация : Run-length encoding
Режим смешивания : DVD-Video
Продолжительность : 24 м.
Задержка видео : 1 с. 785 мс.
Текст #4
Идентификатор : 224 (0xE0)-DVD-2
Формат : EIA-608
Режим смешивания : DVD-Video
Режим смешивания, доп. информаци : Muxed in Video #1
Размер потока : 0,00 байт (0%)

Релиз: UnSlayeR
1-2 Сезон в переводе Антона Карповского Здесь: http://rutor.is/torrent/298485/



   Похожие торренты   Торрент   Размер 
В этой теме нет новых непрочитанных сообщений. Байки из склепа / Tales From The Crypt [S03] (1991) DVDRip от Brazzass

11 | 3

7.24 ГБ

В этой теме нет новых непрочитанных сообщений. OST - Байки из склепа / Tales From The Crypt (1992) MP3

40 | 3

127.3 МБ

В этой теме нет новых непрочитанных сообщений. Байки из склепа / Tales from the Crypt (1972) DVDRip

11 | 26

1.41 ГБ

В этой теме нет новых непрочитанных сообщений. Байки из склепа / Tales from the Crypt (1972) HDRip от Koenig | L1

3 | 0

1.45 ГБ

В этой теме нет новых непрочитанных сообщений. Байки из склепа / Tales From The Crypt [S01] (1989) DVDRip от Brazzass

129 | 17

3.06 ГБ

В этой теме нет новых непрочитанных сообщений. Байки из склепа / Tales From The Crypt [S02] (1990) DVDRip от Brazzass

44 | 9

8.87 ГБ

В этой теме нет новых непрочитанных сообщений. Байки из склепа / Tales From The Crypt [S07] (1996) DVDRip от Brazzass

11 | 9

5.69 ГБ




Вы не можете начинать темы
Вы не можете отвечать на сообщения
Вы не можете редактировать свои сообщения
Вы не можете удалять свои сообщения
Вы не можете добавлять вложения

Перейти:  
Для Мосгорсуда, Роскомнадзора и рекламодателей: mosgorsud-torrent[собачка]yandex.ru
 Вход
ppkBB3cker v.2 © 2008-2014 @ PPK
[ Time : 0.049s | 16 Queries | GZIP : Off ]

cron