img image001 image001 image001 image001 image001 image001 image001 image001 image001 image001 image001 image001 image001 image001 image001

Planets Sun Sun Sun
Статистика раздачи
Автор: PriZraK | Размер: 11.69 ГБ | Добавлен: 27 авг 2016
Раздают: 2    Качают: 4
Скачать торрент
Скачать торрент
Описание торрента

СообщениеДобавлено: 27 авг 2016 


«Сезон: 1 / Серии: 1-8 (13)»


Информация о сериале
Название: Безмозглые
Оригинальное название: BrainDead
Год выхода: 2016
Страна: США
Студии: CBS Television Studios
Жанр: ужасы, фантастика, триллер, драма, комедия
Продолжительность: 8 x ~44 мин.
Перевод: Любительский (двухголосый закадровый) - [KinoView] ex-Несмертельное оружие
Cубтитры: отсутствуют
Режиссеры: Джим МакКэй, Аллан Аркуш, Роберт Кинг
В ролях: Мэри Элизабет Уинстэд, Бет Мэлоун, Дэниэл Пино, Аарон Твейт, Тони Шэлуб, Жан Максвелл, Чарльз Семине, Меган Хилти, Пейдж Паттерсон, Никки М. Джеймс, Джонни Гилл, Брук Блум, Крис МакКинни, Зэк Гренье, Никия Мэтис, Джек Димич, Хэппи Андерсон и др.
Описание:
План Лорел Хили сделать карьеру в документальном кино складывается далеко не так удачно, как ей хотелось бы, из-за чего она вынуждена согласиться поработать в Конгрессе в команде ее брата — сенатора от штата Мэриленд, занимающего пост парламентского организатора фракции демократов. На новом месте девушка сталкивается сразу с двумя серьезными проблемами. Первая касается непреодолимых разногласий между демократами и республиканцами, грозящих привести к прекращению работы правительства. Вторая заключается в том, что ведущие американские политики подверглись нападению мелких инопланетных существ, питающихся мозгами людей. Чтобы узнать истинные цели этих загадочных жучков, Лорел предстоит объединить усилия с эксцентричным конспирологом Густавом Триплеттом и ординатором Рошель Додье. Число подвергшихся заражению конгрессменов и сенаторов продолжает увеличиваться, что вынуждает главную героиню принять экстренные меры по спасению американцев от полоумных политиков…

Файл
Качество: WEB-DL 720p
Формат: MKV
Видео кодек: H264
Аудио кодек: AC3
Видео: 1280x720 (16:9), 23.976 fps, ~3916 Kbps, 0.177 bit/pixel
| Аудио #1: 48 kHz, AC3 Dolby Digital, 5.1, ~384.00 kbps | Rus | DVO
| Аудио #2: 48 kHz, AC3 Dolby Digital, 5.1, ~384.00 kbps | Eng | Original

Релиз от: KinoView



Эпизод: 01 - «Принцип безумия: Как экстремизм в политике угрожает демократии 21 века»
Эпизод: 02 - «Игра в политику: Жизнь в тени бюджетного кризиса - критический анализ»
Эпизод: 03 - «Бодание волов: Пять простых шагов как пережить раздоры в правительстве»
Эпизод: 04 - «Пробуждение масс: Девять преимуществ демократии прямого участия и как сохранить величие Америки стимулируя электорат»
Эпизод: 05 - «Возвращение к работе: Взгляд на работу Конгресса и на то, как он решает вопросы (или не решает)»
Эпизод: 06 - «Прошлое как пролог: Заметки о пострейгановской теории партийного альянса, племенизме и лояльности»
Эпизод: 07 - «Сила эвфемизма: Как пытки стали предметом споров в американской политике»
Эпизод: 08 - «Путь к войне, часть первая: Надвигающаяся политическая буря»

Код:
General
Unique ID                   : 235420337945734511279284511033020511280 (0xB11C4ECE6391753BA09648A80739F430)
Complete name               : BrainDead.S01E01.The.Insanity.Principle.WEB-DL.720p.H.264.RUS.-KinoView.mkv
Format                      : Matroska
Format version              : Version 2
File size                   : 1.46 GiB
Duration                    : 43mn 45s
Overall bit rate            : 4 779 Kbps
Movie name                  : Безмозглые / BrainDead / Сезон: 1 / Эпизод: 01 - Принцип безумия
Encoded date                : UTC 2016-06-30 21:41:15
Writing application         : mkvmerge v5.2.1 ('A Far Off Place') built on Jan  2 2012 23:21:10
Writing library             : libebml v1.2.3 + libmatroska v1.3.0
Cover                       : Yes
Attachments                 : Cover.jpg
Video
ID                          : 1
Format                      : AVC
Format/Info                 : Advanced Video Codec
Format profile              : High@L3.1
Format settings, CABAC      : No
Format settings, ReFrames   : 2 frames
Muxing mode                 : Header stripping
Codec ID                    : V_MPEG4/ISO/AVC
Duration                    : 43mn 45s
Bit rate                    : 3 916 Kbps
Width                       : 1 280 pixels
Height                      : 720 pixels
Display aspect ratio        : 16:9
Frame rate mode             : Constant
Frame rate                  : 23.976 (24000/1001) fps
Color space                 : YUV
Chroma subsampling          : 4:2:0
Bit depth                   : 8 bits
Scan type                   : Progressive
Bits/(Pixel*Frame)          : 0.177
Stream size                 : 1.20 GiB (82%)
Title                       : Релиз от: KinoView
Language                    : English
Default                     : Yes
Forced                      : No
Color range                 : Limited
Color primaries             : BT.709
Transfer characteristics    : BT.709
Matrix coefficients         : BT.709
Audio #1
ID                          : 2
Format                      : AC-3
Format/Info                 : Audio Coding 3
Mode extension              : CM (complete main)
Format settings, Endianness : Big
Muxing mode                 : Header stripping
Codec ID                    : A_AC3
Duration                    : 43mn 45s
Bit rate mode               : Constant
Bit rate                    : 384 Kbps
Channel(s)                  : 6 channels
Channel positions           : Front: L C R, Side: L R, LFE
Sampling rate               : 48.0 KHz
Frame rate                  : 31.250 fps (1536 spf)
Compression mode            : Lossy
Stream size                 : 120 MiB (8%)
Title                       : DVO (KinoView)
Language                    : Russian
Default                     : Yes
Forced                      : No
Audio #2
ID                          : 3
Format                      : AC-3
Format/Info                 : Audio Coding 3
Mode extension              : CM (complete main)
Format settings, Endianness : Big
Muxing mode                 : Header stripping
Codec ID                    : A_AC3
Duration                    : 43mn 45s
Bit rate mode               : Constant
Bit rate                    : 384 Kbps
Channel(s)                  : 6 channels
Channel positions           : Front: L C R, Side: L R, LFE
Sampling rate               : 48.0 KHz
Frame rate                  : 31.250 fps (1536 spf)
Compression mode            : Lossy
Stream size                 : 120 MiB (8%)
Title                       : Original
Language                    : English
Default                     : No
Forced                      : No
 




   Похожие торренты   Торрент   Размер 
В этой теме нет новых непрочитанных сообщений. Безмозглые / BrainDead [01х01-02 из 13] (2016) WEB-DL 720p | KinoView

0 | 1

2.91 ГБ

В этой теме нет новых непрочитанных сообщений. Безмозглые / BrainDead [01х01-09 из 13] (2016) WEB-DL 720p | KinoView

1 | 3

13.16 ГБ

В этой теме нет новых непрочитанных сообщений. Безмозглые / BrainDead [01х01-11 из 13] (2016) WEB-DL 720p | KinoView

1 | 5

16.06 ГБ

В этой теме нет новых непрочитанных сообщений. Безмозглые / BrainDead [01х01-05 из 13] (2016) WEB-DL 720p | KinoView

4 | 1

7.27 ГБ

В этой теме нет новых непрочитанных сообщений. Безмозглые / BrainDead [01х01-06 из 13] (2016) WEB-DL 720p | KinoView

5 | 3

8.75 ГБ

В этой теме нет новых непрочитанных сообщений. Безмозглые / BrainDead [01х01 из 13] (2016) WEB-DL 720p | KinoView

1 | 0

1.46 ГБ

В этой теме нет новых непрочитанных сообщений. Безмозглые / BrainDead [01х01-10 из 13] (2016) WEB-DL 720p | KinoView

2 | 7

14.58 ГБ




Вы не можете начинать темы
Вы не можете отвечать на сообщения
Вы не можете редактировать свои сообщения
Вы не можете удалять свои сообщения
Вы не можете добавлять вложения

Перейти:  
Для Мосгорсуда, Роскомнадзора и рекламодателей: mosgorsud-torrent[собачка]yandex.ru
 Вход
ppkBB3cker v.2 © 2008-2014 @ PPK
[ Time : 0.039s | 16 Queries | GZIP : On ]

Торрент трекер RUTOR.IN, Не можете зайти на rutor.org? Какой новый адрес рутор? Какое зеркало рутор? Не работает rutor.org и зеркала? Тогда наш торрент специально для вас. Rutor.in неофициальное зеркало rutor. В случае если у Вас заблокирован rutor или вдруг Вы не можете на него зайти, то Вы без труда сможете скачать бесплатно и без рекламы последние новинки кино, игр, сериалов и прочего у нас, на Rutor.in. Не нужно использовать прокси, чтобы зайти на рутор, достаточно воспользоваться нашим ресурсом. Все новые фильмы, игры, сериалы, книги и музыка за 2013 и 2014 годы через торрент бесплатно. Скачивайте фильмы в хорошем качестве, игры для пк, xbox, playstation без регистрации. У нас вы найдете новые Зарубежные сериалы и Русские сериалы 2013, 2014, 2015 годов. Оставайтесь с нами, качайте любимые фильмы, игры, сериалы, книги и музыку.