img image001 image001 image001 image001 image001 image001 image001 image001 image001 image001 image001 image001 image001 image001 image001

Planets Sun Sun Sun
Статистика раздачи
Автор: PriZraK | Размер: 2.09 ГБ | Добавлен: 03 сен 2016
Раздают: 46    Качают: 36
Скачать торрент
Скачать торрент
Описание торрента

СообщениеДобавлено: 03 сен 2016 


Информация о фильме
Название: Проповедник
Оригинальное название: Preacher
Год выхода: 2016
Жанр: Фэнтези, драма, детектив, приключения
Режиссер: Эван Голдберг, Сет Роген, Майкл Словис
В ролях: Доминик Купер, Том Брук, У. Эрл Браун, Йен Коллетти, Джозеф Гилган, Люси Гриффитс, Джеки Эрл Хейли, Рут Негга, Дерек Уилсон, Анатол Юсеф
О фильме:
Джесси Кастер выбрал для себя путь служения Богу. Но все религиозные устои мужчины были нарушены, когда внутри него поселилось странное существо Генезис – плод совокупления демона и ангела. Генезис одновременно представляет собой бесспорную добродетель и в то же время абсолютное зло. Поэтому Джесси, как носитель этого своеобразного паразита, при желании может уподобиться самому Богу, а его физические и духовные силы возрастают до невиданных размеров. Однако Кастера мучает противоборство тёмной и светлой сторон Генезиса, постоянно сражающихся между собой. Чтобы избавиться от могущественного творения небес и ада, находящегося внутри него, проповедник объединяется с ирландским вампиром Кэссиди и бывшей возлюбленной Тюлип. Они отправляются искать Бога, чтобы получить ответы на насущные вопросы...

Страна: США
Студия: AMC Studios
Продолжительность: 10 x 00:50:00
Перевод: Профессиональный (многоголосый, закадровый) [Кравец]
Файл
Формат: MP4
Качество: WEB-DLRip | КПК
Видео: MPEG-4 AVC (x264), 640x360, ~500 kbps, 23.976 fps
Аудио: AAC LC, 48.0 KHz, 2 ch, 128 Kbps
Субтитры: Нет
Семпл

Complete name : E:KinoPropovednik.AVC.KPK.GFPropovednik.S01.2016.AVC.WEB-DLRip.KPK.Kravec.GFPropovednik.s01e04.2016.AVC.WEB-DLRip.KPK.Kravec.GF.mp4
Format : MPEG-4
Codec ID : M4V (isom/iso2/avc1)
File size : 193 MiB
Duration : 42mn 39s
Overall bit rate mode : Variable
Overall bit rate : 634 Kbps
Writing application : Lavf53.19.0
Video
ID : 1
Format : AVC
Format/Info : Advanced Video Codec
Format profile : High@L4.1
Format settings, CABAC : Yes
Format settings, ReFrames : 8 frames
Codec ID : avc1
Codec ID/Info : Advanced Video Coding
Duration : 42mn 38s
Source duration : 14mn 0s
Bit rate : 500 Kbps
Width : 640 pixels
Height : 360 pixels
Display aspect ratio : 16:9
Frame rate mode : Constant
Frame rate : 23.976 fps
Color space : YUV
Chroma subsampling : 4:2:0
Bit depth : 8 bits
Scan type : Progressive
Bits/(Pixel*Frame) : 0.091
Stream size : 153 MiB (79%)
Source stream size : 153 MiB (79%)
Writing library : x264 core 146 r2538 121396c
Encoding settings : cabac=1 / ref=8 / deblock=1:-2:-2 / analyse=0x3:0x133 / me=umh / subme=10 / psy=1 / psy_rd=1.00:0.00 / mixed_ref=1 / me_range=24 / chroma_me=1 / trellis=2 / 8x8dct=1 / cqm=0 / deadzone=21,11 / fast_pskip=1 / chroma_qp_offset=-2 / threads=12 / lookahead_threads=2 / sliced_threads=0 / nr=0 / decimate=0 / interlaced=0 / bluray_compat=0 / constrained_intra=0 / bframes=8 / b_pyramid=2 / b_adapt=2 / b_bias=0 / direct=3 / weightb=1 / open_gop=0 / weightp=2 / keyint=240 / keyint_min=121 / scenecut=40 / intra_refresh=0 / rc_lookahead=40 / rc=2pass / mbtree=1 / bitrate=500 / ratetol=1.0 / qcomp=0.60 / qpmin=0 / qpmax=69 / qpstep=4 / cplxblur=20.0 / qblur=0.5 / ip_ratio=1.40 / aq=1:1.00
Menus : 3
mdhd_Duration : 2558977
Audio
ID : 2
Format : AAC
Format/Info : Advanced Audio Codec
Format profile : LC
Codec ID : 40
Duration : 42mn 39s
Bit rate mode : Variable
Bit rate : 128 Kbps
Channel(s) : 2 channels
Channel positions : Front: L R
Sampling rate : 48.0 KHz
Frame rate : 46.875 fps (1024 spf)
Compression mode : Lossy
Stream size : 39.0 MiB (20%)
Default : Yes
Alternate group : 1
Menus : 3

Релиз от:



   Похожие торренты   Торрент   Размер 
В этой теме нет новых непрочитанных сообщений. Проповедник / Preacher [S01] (2016) WEB-DLRip | Кравец

435 | 515

5.67 ГБ

В этой теме нет новых непрочитанных сообщений. Проповедник / Preacher [01x01-06 из 10] (2016) WEB-DLRip | Кравец

17 | 12

3.48 ГБ

В этой теме нет новых непрочитанных сообщений. Проповедник / Preacher [01x01-05 из 10] (2016) WEB-DLRip | Кравец

35 | 44

2.86 ГБ

В этой теме нет новых непрочитанных сообщений. Проповедник / Preacher [01x01-04 из 10] (2016) WEB-DLRip | Кравец

142 | 163

2.25 ГБ

В этой теме нет новых непрочитанных сообщений. Проповедник / Preacher [01x01-09 из 10] (2016) WEB-DLRip | Кравец

112 | 303

4.95 ГБ

В этой теме нет новых непрочитанных сообщений. Проповедник / Preacher [01x01 из 10] (2016) WEB-DLRip | Кравец

185 | 4

698.22 МБ

В этой теме нет новых непрочитанных сообщений. Проповедник / Preacher [01x01-02 из 10] (2016) WEB-DLRip | Кравец

19 | 9

1.24 ГБ




Вы не можете начинать темы
Вы не можете отвечать на сообщения
Вы не можете редактировать свои сообщения
Вы не можете удалять свои сообщения
Вы не можете добавлять вложения

Перейти:  
Для Мосгорсуда, Роскомнадзора и рекламодателей: mosgorsud-torrent[собачка]yandex.ru
 Вход
ppkBB3cker v.2 © 2008-2014 @ PPK
[ Time : 0.056s | 15 Queries | GZIP : Off ]

cron