img image001 image001 image001 image001 image001 image001 image001 image001 image001 image001 image001 image001 image001 image001 image001

Planets Sun Sun Sun
Статистика раздачи
Автор: PriZraK | Размер: 33.24 ГБ | Добавлен: 19 сен 2016
Раздают: 0    Качают: 0
Скачать торрент
Скачать торрент
Описание торрента

СообщениеДобавлено: 19 сен 2016 

Название: Бесстыдники
Оригинальное название: Shameless
Год выхода: 2015
Страна: США
Студия: Bonanza Productions, John Wells Productions, Warner Bros. Television
Продолжительность: 12 x ~ 55:00
Жанр: драма, комедия, ...
Режиссер: Марк Майлод, Кристофер Чулак, Мими Ледер, ...
В ролях: Уильям Х. Мэйси, Эмми Россам, Камерон Монахэн, Джереми Аллен Уайт, Эмма Кинни, Итэн Каткоски, Блейк Александр Джонсон, Бреннан Кэйн Джонсон, Шанола Хэмптон, Стив Хоуи, Джоан Кьюсак, Ноэль Фишер, Эмма Гринвелл, Джэйк Макдорман, ...
Перевод: Профессиональный (многоголосный, закадровый) AlexFilm
О фильме: Американский ремейк британского сериала, повествующий о взбалмошной многодетной семье Галлахеров и их соседях, которые веселятся, попадают в самые невероятные ситуации и пытаются выжить в этом мире всеми возможными средствами, но при этом как можно меньше работая…

Кодек: x264
Качество: BDRip 720p
Видео: 1280x720, ~5000 kbps, 23,976 fps
Аудио #1: AC-3, 6 ch, 640 kbps (Rus) - AlexFilm
Аудио #2: DTS, 6 ch, 1509 kbps (Eng)
Субтитры: Русские, Английские
Общее
Уникальный идентификатор : 174858789511425229978441448378088104898 (0x838C93EFAD65A70B8F5772BA44C523C2)
Полное имя : Shameless US E01 S05 2015 BDRip 720p AlexFilm.mkv
Формат : Matroska
Версия формата : Version 2
Размер файла : 2,89 Гбайт
Продолжительность : 54 м.
Общий поток : 7587 Кбит/сек
Дата кодирования : UTC 2016-09-09 20:25:38
Программа кодирования : mkvmerge v4.0.0 ('The Stars were mine') сборка от Jun 6 2010 16:18:42
Библиотека кодирования : libebml v1.0.0 + libmatroska v1.0.0
Видео
Идентификатор : 1
Формат : AVC
Формат/Информация : Advanced Video Codec
Профиль формата : High@L4.1
Параметр CABAC формата : Да
Параметр ReFrames формата : 5 кадров
Идентификатор кодека : V_MPEG4/ISO/AVC
Продолжительность : 54 м.
Битрейт : 5438 Кбит/сек
Ширина : 1280 пикселей
Высота : 720 пикселей
Соотношение сторон : 16:9
Режим частоты кадров : Постоянный
Частота кадров : 23,976 кадра/сек
Цветовое пространство : YUV
Субдискретизация насыщенности : 4:2:0
Битовая глубина : 8 бит
Тип развёртки : Прогрессивная
Бит/(Пиксели*Кадры) : 0.246
Размер потока : 2,01 Гбайт (70%)
Библиотека кодирования : x264 core 148 r2638 7599210
Настройки программы : cabac=1 / ref=5 / deblock=1:0:0 / analyse=0x3:0x133 / me=umh / subme=7 / psy=1 / psy_rd=1.00:0.00 / mixed_ref=1 / me_range=16 / chroma_me=1 / trellis=1 / 8x8dct=1 / cqm=0 / deadzone=21,11 / fast_pskip=0 / chroma_qp_offset=-2 / threads=18 / lookahead_threads=3 / sliced_threads=0 / nr=0 / decimate=1 / interlaced=0 / bluray_compat=0 / constrained_intra=0 / bframes=3 / b_pyramid=2 / b_adapt=1 / b_bias=0 / direct=1 / weightb=1 / open_gop=0 / weightp=2 / keyint=250 / keyint_min=23 / scenecut=40 / intra_refresh=0 / rc_lookahead=40 / rc=2pass / mbtree=1 / bitrate=5438 / ratetol=1.0 / qcomp=0.60 / qpmin=0 / qpmax=69 / qpstep=4 / cplxblur=20.0 / qblur=0.5 / ip_ratio=1.40 / aq=1:1.00
Язык : English
Default : Нет
Forced : Нет
Аудио #1
Идентификатор : 2
Формат : AC-3
Формат/Информация : Audio Coding 3
Расширение режима : CM (complete main)
Параметр Endianness формата : Big
Идентификатор кодека : A_AC3
Продолжительность : 54 м.
Вид битрейта : Постоянный
Битрейт : 640 Кбит/сек
Каналы : 6 каналов
Расположение каналов : Front: L C R, Side: L R, LFE
Частота : 48,0 КГц
Частота кадров : 31,250 кадров/сек (1536 spf)
Метод сжатия : С потерями
Размер потока : 250 Мбайт (8%)
Заголовок : AlexFilm
Язык : Russian
Default : Нет
Forced : Нет
Аудио #2
Идентификатор : 3
Формат : DTS
Формат/Информация : Digital Theater Systems
Режим : 16
Параметр Endianness формата : Big
Идентификатор кодека : A_DTS
Продолжительность : 54 м.
Вид битрейта : Постоянный
Битрейт : 1509 Кбит/сек
Каналы : 6 каналов
Расположение каналов : Front: L C R, Side: L R, LFE
Частота : 48,0 КГц
Частота кадров : 93,750 кадра/сек (512 spf)
Битовая глубина : 24 бит
Метод сжатия : С потерями
Задержка видео : 11 мс.
Размер потока : 588 Мбайт (20%)
Язык : English
Default : Нет
Forced : Нет
Текст #1
Идентификатор : 4
Формат : UTF-8
Идентификатор кодека : S_TEXT/UTF8
Идентификатор кодека/Информация : UTF-8 Plain Text
Язык : Russian
Default : Нет
Forced : Нет
Текст #2
Идентификатор : 5
Формат : UTF-8
Идентификатор кодека : S_TEXT/UTF8
Идентификатор кодека/Информация : UTF-8 Plain Text
Язык : English
Default : Нет
Forced : Нет





   Похожие торренты   Торрент   Размер 
В этой теме нет новых непрочитанных сообщений. Бесстыдники / Shameless (US) [S06] (2016) BDRip 720p | AlexFilm

24 | 34

33.74 ГБ

В этой теме нет новых непрочитанных сообщений. Бесстыжие / Бесстыдники / Shameless (US) [S01-05] (2011-2015) HDTVRip 720p | AlexFilm

130 | 756

113.36 ГБ

В этой теме нет новых непрочитанных сообщений. Бесстыжие / Бесстыдники / Shameless (US) [05x01 из 12] (2015) HDTVRip 720p | AlexFilm

842 | 35

1.6 ГБ

В этой теме нет новых непрочитанных сообщений. Бесстыжие / Бесстыдники / Shameless [S03] (2013) HDTVRip 720p | AlexFilm

10 | 5

21.14 ГБ

В этой теме нет новых непрочитанных сообщений. Бесстыжие / Бесстыдники / Shameless [S03] (2013) HDTVRip 720p | AlexFilm

9 | 13

28.62 ГБ

В этой теме нет новых непрочитанных сообщений. Бесстыдники / Shameless (US) [07x01 из 12] (2016) HDTVRip 720p | AlexFilm

419 | 25

1.99 ГБ

В этой теме нет новых непрочитанных сообщений. Бесстыжие / Бесстыдники / Shameless (US) [S01] (2011) HDTVRip 720p | AlexFilm

232 | 115

16.8 ГБ




Вы не можете начинать темы
Вы не можете отвечать на сообщения
Вы не можете редактировать свои сообщения
Вы не можете удалять свои сообщения
Вы не можете добавлять вложения

Перейти:  
Для Мосгорсуда, Роскомнадзора и рекламодателей: mosgorsud-torrent[собачка]yandex.ru
 Вход
ppkBB3cker v.2 © 2008-2014 @ PPK
[ Time : 0.073s | 16 Queries | GZIP : Off ]

Торрент трекер RUTOR.IN, Не можете зайти на rutor.org? Какой новый адрес рутор? Какое зеркало рутор? Не работает rutor.org и зеркала? Тогда наш торрент специально для вас. Rutor.in неофициальное зеркало rutor. В случае если у Вас заблокирован rutor или вдруг Вы не можете на него зайти, то Вы без труда сможете скачать бесплатно и без рекламы последние новинки кино, игр, сериалов и прочего у нас, на Rutor.in. Не нужно использовать прокси, чтобы зайти на рутор, достаточно воспользоваться нашим ресурсом. Все новые фильмы, игры, сериалы, книги и музыка за 2013 и 2014 годы через торрент бесплатно. Скачивайте фильмы в хорошем качестве, игры для пк, xbox, playstation без регистрации. У нас вы найдете новые Зарубежные сериалы и Русские сериалы 2013, 2014, 2015 годов. Оставайтесь с нами, качайте любимые фильмы, игры, сериалы, книги и музыку.