img image001 image001 image001 image001 image001 image001 image001 image001 image001 image001 image001 image001 image001 image001 image001

Planets Sun Sun Sun
Статистика раздачи
Автор: PriZraK | Размер: 2.58 ГБ | Добавлен: 19 сен 2016, 07:42
Раздают: 0    Качают: 0
Скачать торрент
Скачать торрент
Описание торрента

СообщениеДобавлено: 19 сен 2016, 07:42 



═╬ Наемник Куорри ╬═



Информация о фильме:
✦ Название: Наемник Куорри
✦ Оригинальное название: Quarry
✦ Год выхода: 2016
✦ Жанр: драма, криминал
✦ Режиссер: Грег Яйтанс, Джон Хиллкоут
✦ В ролях: Логан Маршалл-Грин, Джоди Бальфур, Питер Муллан, Никки Амука-Бёрд, Дэймон Херриман, Эдоардо Баллерини, Хлоя Элиз, Джош Рэндэлл, Мустафа Жакир, Джошуа Дж. Уильямс

Описание фильма:
Дело происходит в 1973 году. Снайпер Куорри возвращается из третьей военной командировки во Вьетнам и обнаруживает, что люди не видят в нём героя, скорее демонизируя образ американского солдата, а старые друзья так и вовсе от него отвернулись. От разочарования он подаётся в разветвлённую сеть наёмных убийц и коррупционеров, действующую на всей протяжённости Миссисипи.

✦ Страна: США
✦ Продолжительность: ~ 00:55:00 серия
✦ Перевод: Профессиональный (многоголосый, закадровый)
- Novamedia по заказу Amedia

Информация о файле:
✦ ✦ Формат: | X264 | MKV |
✦ Качество: HDTVRip-AVC | чистый видеоряд |
✦ Видео: ~ 2435 kbps | 1024x576 (16:9) | 25 fps
✦ Аудио Rus: AC3 | 48.0 KHz | 2 ch | 192 kbps |
✦ Аудио Eng: AC3 | 48.0 KHz | 6 ch | 384 kbps |
✦ Субтитры: | русские (амедиа) | английские

Общее
Уникальный идентификатор : 185832449094710107531620926840225084205 (0x8BCE07203257A3D3B4431E58166B332D)
Полное имя : D:загрузкиQuarry (Season 01) HDAVCQuarry.[S01E01].HDAVC.Amedia.mkv
Формат : Matroska
Версия формата : Version 2
Размер файла : 1,53 Гбайт
Продолжительность : 1 ч. 12 м.
Общий поток : 3013 Кбит/сек
Дата кодирования : UTC 2016-09-10 18:01:11
Программа кодирования : mkvmerge v7.8.0 ('River Man') 32bit built on Apr 3 2015 12:11:22
Библиотека кодирования : libebml v1.3.1 + libmatroska v1.4.2
Видео
Идентификатор : 1
Формат : AVC
Формат/Информация : Advanced Video Codec
Профиль формата : High@L4.1
Параметр CABAC формата : Да
Параметр ReFrames формата : 9 кадров
Идентификатор кодека : V_MPEG4/ISO/AVC
Продолжительность : 1 ч. 12 м.
Битрейт : 2435 Кбит/сек
Ширина : 1024 пикселя
Высота : 576 пикселей
Соотношение сторон : 16:9
Режим частоты кадров : Постоянный
Частота кадров : 25,000 кадров/сек
Цветовое пространство : YUV
Субдискретизация насыщенности : 4:2:0
Битовая глубина : 8 бит
Тип развёртки : Прогрессивная
Бит/(Пиксели*Кадры) : 0.165
Размер потока : 1,21 Гбайт (79%)
Библиотека кодирования : x264 core 146 r2538 121396c
Настройки программы : cabac=1 / ref=9 / deblock=1:-3:-3 / analyse=0x3:0x113 / me=umh / subme=10 / psy=1 / psy_rd=1.00:0.00 / mixed_ref=1 / me_range=32 / chroma_me=1 / trellis=2 / 8x8dct=1 / cqm=0 / deadzone=21,11 / fast_pskip=0 / chroma_qp_offset=-2 / threads=6 / lookahead_threads=1 / sliced_threads=0 / nr=0 / decimate=0 / interlaced=0 / bluray_compat=0 / constrained_intra=0 / bframes=10 / b_pyramid=2 / b_adapt=1 / b_bias=0 / direct=3 / weightb=1 / open_gop=0 / weightp=2 / keyint=250 / keyint_min=25 / scenecut=40 / intra_refresh=0 / rc_lookahead=40 / rc=2pass / mbtree=0 / bitrate=2435 / ratetol=1.0 / qcomp=0.60 / qpmin=0 / qpmax=69 / qpstep=4 / cplxblur=20.0 / qblur=0.5 / vbv_maxrate=50000 / vbv_bufsize=62500 / nal_hrd=none / filler=0 / ip_ratio=1.40 / pb_ratio=1.30 / aq=1:1.00
Язык : English
Default : Да
Forced : Нет
Аудио #1
Идентификатор : 2
Формат : AC-3
Формат/Информация : Audio Coding 3
Расширение режима : CM (complete main)
Параметр Endianness формата : Big
Идентификатор кодека : A_AC3
Продолжительность : 1 ч. 12 м.
Вид битрейта : Постоянный
Битрейт : 192 Кбит/сек
Каналы : 2 канала
Расположение каналов : Front: L R
Частота : 48,0 КГц
Битовая глубина : 16 бит
Метод сжатия : С потерями
Размер потока : 99,9 Мбайт (6%)
Язык : Russian
Default : Да
Forced : Нет
Аудио #2
Идентификатор : 3
Формат : AC-3
Формат/Информация : Audio Coding 3
Расширение режима : CM (complete main)
Параметр Endianness формата : Big
Идентификатор кодека : A_AC3
Продолжительность : 1 ч. 12 м.
Вид битрейта : Постоянный
Битрейт : 384 Кбит/сек
Каналы : 6 каналов
Расположение каналов : Front: L C R, Side: L R, LFE
Частота : 48,0 КГц
Битовая глубина : 16 бит
Метод сжатия : С потерями
Размер потока : 200 Мбайт (13%)
Язык : English
Default : Нет
Forced : Нет
Текст #1
Идентификатор : 4
Формат : UTF-8
Идентификатор кодека : S_TEXT/UTF8
Идентификатор кодека/Информация : UTF-8 Plain Text
Язык : Russian
Default : Нет
Forced : Нет
Текст #2
Идентификатор : 5
Формат : UTF-8
Идентификатор кодека : S_TEXT/UTF8
Идентификатор кодека/Информация : UTF-8 Plain Text
Язык : English
Default : Нет
Forced : Нет

Когда раздача ведётся путём добавления новых серий, при каждом добавлении создётся новый торрент. Чтобы начать докачку новой серии, пользователям необходимо сделать следующее:
(1) остановить скачивание,
(2) удалить старый торрент у себя из клиента (старые серии удалять не надо),
(3) скачать новый торрент и запустить его у себя в клиенте вместо старого, при этом указать клиенту путь в старую папку, куда и должно происходить скачивание новых серий.
Ваш клиент при этом должен произвести хеширование (проверку) старой папки (если не производит сам - помогите ему сделать это), и будет докачивать только те серии, которых у вас ещё нет. Старые серии при этом не удаляются, а продолжают раздаваться!
Eсли вы уже удалили старые серии, то предотвратить повторную закачку старых серий можно, отжав галочку в соответсвующих местах при запуске нового торрента. По возможности, желательно не удалять старые серии как можно дольше, чтобы релизёр не столько продолжал раздавать старые серии, а смог сконцентрироваться на новых.



   Похожие торренты   Торрент   Размер 
В этой теме нет новых непрочитанных сообщений. Наемник Куорри / Quarry [01х01-07 из 08] (2016) HDTVRip от Scarabey | Amedia

24 | 50

5.08 ГБ

В этой теме нет новых непрочитанных сообщений. Наемник Куорри / Quarry [01х01 из 08] (2016) HDTVRip от qqss44 | Amedia

0 | 0

1.37 ГБ

В этой теме нет новых непрочитанных сообщений. Наемник Куорри / Quarry [01х01 из 08] (2016) HDTVRip от Kaztorrents | КПК | Amedia

0 | 0

380.99 МБ

В этой теме нет новых непрочитанных сообщений. Наемник Куорри / Quarry [01х01 из 08] (2016) HDTV 720p от qqss44 | Amedia

0 | 0

2.74 ГБ

В этой теме нет новых непрочитанных сообщений. Наемник Куорри / Quarry [S01] (2016) HDTVRip 1080p | Amedia

40 | 54

30.89 ГБ

В этой теме нет новых непрочитанных сообщений. Наемник Куорри / Quarry [01х01 из 08] (2016) HDTVRip | Jaskier

0 | 0

1.57 ГБ

В этой теме нет новых непрочитанных сообщений. Наемник Куорри / Quarry [01х01-03 из 08] (2016) HDTVRip-AVC | AlexFilm

42 | 22

3.91 ГБ




Вы не можете начинать темы
Вы не можете отвечать на сообщения
Вы не можете редактировать свои сообщения
Вы не можете удалять свои сообщения
Вы не можете добавлять вложения

Перейти:  
Для Мосгорсуда, Роскомнадзора и рекламодателей: mosgorsud-torrent[собачка]yandex.ru
Настройки
ppkBB3cker v.2 © 2008-2014 @ PPK
[ Time : 0.019s | 15 Queries | GZIP : Off ]
CGP [Extreme] output time : 0.00024s | 0 Queries | GZIP : Off

Торрент трекер RUTOR.IN, Не можете зайти на rutor.org? Какой новый адрес рутор? Какое зеркало рутор? Не работает rutor.org и зеркала? Тогда наш торрент специально для вас. Rutor.in неофициальное зеркало rutor. В случае если у Вас заблокирован rutor или вдруг Вы не можете на него зайти, то Вы без труда сможете скачать бесплатно и без рекламы последние новинки кино, игр, сериалов и прочего у нас, на Rutor.in. Не нужно использовать прокси, чтобы зайти на рутор, достаточно воспользоваться нашим ресурсом. Все новые фильмы, игры, сериалы, книги и музыка за 2013 и 2014 годы через торрент бесплатно. Скачивайте фильмы в хорошем качестве, игры для пк, xbox, playstation без регистрации. У нас вы найдете новые Зарубежные сериалы и Русские сериалы 2013, 2014, 2015 годов. Оставайтесь с нами, качайте любимые фильмы, игры, сериалы, книги и музыку.