img image001 image001 image001 image001 image001 image001 image001 image001 image001 image001 image001 image001 image001 image001 image001

Planets Sun Sun Sun
Статистика раздачи
Автор: PriZraK | Размер: 746.73 МБ | Добавлен: 19 сен 2016
Раздают: 84    Качают: 4
Скачать торрент
Скачать торрент
Описание торрента

СообщениеДобавлено: 19 сен 2016 


Информация о фильме
Оригинальное название: Капитан полиции метро
Год выпуска: 2016
Жанр: Детектив
Режиссер: Алексей Феоктистов
В ролях: Максим Щёголев, Дарья Лузина, Сергей Жарков, Юлия Чеснокова, Егор Баринов, Евгений Редько, Ингрид Олеринская, Олег Васильков, Александр Андриенко, Дмитрий Супонин
О фильме:
Действие интригующей кинокартины переносит зрителей в самое сердце России. Именно здесь, в Москве, на одной из станций подземки произошло таинственное убийство. Конечно же, на место происшествия сразу прибыли сотрудники правоохранительных органов, которые попытались установить личность погибшего, но сделать это оказалось намного труднее чем они думали. При мужчине не было ни ключей, ни документов, однако сотрудники полиции нашли свидетельницу происходящего, которая помогла им в расследовании. Девушка по имени Ксения видела как за несколько минут до убийства у жертвы были похищены ключи. Вор-карманник скрылся в неизвестном направлении, но эта информация дала полицейским возможность ухватиться за нить расследования. Распутывая огромный клубок лжи и интриг, сотрудники правоохранительных органов выходят на некоторых сомнительных личностей, из-за которых в метро постоянно происходят невероятные события. Попытаться раскрыть это загадочное преступление и отыскать убийцу предстоит капитану полиции Мышляеву, который отличается острым умом и имеет в своем распоряжении самых отважных бойцов. Но сможет ли он раскрыть такое необычное преступление?

Страна: Россия
Студия: Кинокомпания «Стар Гелакси»
Продолжительность: 2 x ~ 00:45:00
Перевод: Не требуется
Файл
Формат: AVI
Качество: HDTVRip
Видео: XviD build 73, 720x400 (16:9), 25.000 fps, ~ 950 Kbps (~ 0.160 bit/pixel)
Звук: 48.0 kHz, MP3, 2/0 ch, 128 kbps
Субтитры: нет
General
Complete name : Kapitan.Policii.Metro.2016.XviD.HDTVRip.by.GeneralFilmserija.01.avi
Format : AVI
Format/Info : Audio Video Interleave
File size : 373 MiB
Duration : 47mn 12s
Overall bit rate : 1 106 Kbps
Writing application : VirtualDubMod 1.5.10.3 | www.virtualdub-fr.org || (build 2550/release)
Writing library : VirtualDubMod build 2550/release
Video
ID : 0
Format : MPEG-4 Visual
Format profile : Advanced Simple@L5
Format settings, BVOP : 1
Format settings, QPel : No
Format settings, GMC : No warppoints
Format settings, Matrix : Custom
Codec ID : XVID
Codec ID/Hint : XviD
Duration : 47mn 12s
Bit rate : 968 Kbps
Width : 656 pixels
Height : 368 pixels
Display aspect ratio : 16:9
Frame rate : 25.000 fps
Color space : YUV
Chroma subsampling : 4:2:0
Bit depth : 8 bits
Scan type : Progressive
Compression mode : Lossy
Bits/(Pixel*Frame) : 0.160
Stream size : 327 MiB (88%)
Writing library : XviD 73
Audio
ID : 1
Format : MPEG Audio
Format version : Version 1
Format profile : Layer 3
Codec ID : 55
Codec ID/Hint : MP3
Duration : 47mn 12s
Bit rate mode : Constant
Bit rate : 128 Kbps
Channel(s) : 2 channels
Sampling rate : 48.0 KHz
Compression mode : Lossy
Stream size : 43.2 MiB (12%)
Alignment : Aligned on interleaves
Interleave, duration : 40 ms (1.00 video frame)
Interleave, preload duratio : 504 ms
Writing library : LAME3.99r
Encoding settings : -m s -V 4 -q 0 -lowpass 17 -b 128





Релиз от:
Исходник:



   Похожие торренты   Торрент   Размер 
В этой теме нет новых непрочитанных сообщений. Капитан полиции метро [01-02 из 02] (2016) HDTVRip | КПК

7 | 0

434.15 МБ

В этой теме нет новых непрочитанных сообщений. Капитан полиции метро [01-02 из 02] (2016) HDTVRip-AVC от Files-x

0 | 0

1.44 ГБ

В этой теме нет новых непрочитанных сообщений. Капитан полиции метро [01-02 из 02] (2016) HDTVRip от Files-x

0 | 0

1.17 ГБ

В этой теме нет новых непрочитанных сообщений. Капитан полиции метро [01 из 02] (2016) HDTVRip 720p от MediaClub

0 | 0

2.45 ГБ

В этой теме нет новых непрочитанных сообщений. Капитан полиции метро [01-02 из 02] (2016) HDTV 1080i от MediaClub

0 | 0

5.91 ГБ

В этой теме нет новых непрочитанных сообщений. Капитан Фантастик / Captain Fantastic (2016) WEB-DLRip от GeneralFilm | iTunes

755 | 108

1.45 ГБ

В этой теме нет новых непрочитанных сообщений. Капитан Фантастик / Captain Fantastic (2016) WEB-DLRip от Generalfilm | КПК | iTunes

46 | 14

494.77 МБ




Вы не можете начинать темы
Вы не можете отвечать на сообщения
Вы не можете редактировать свои сообщения
Вы не можете удалять свои сообщения
Вы не можете добавлять вложения

Перейти:  
Для Мосгорсуда, Роскомнадзора и рекламодателей: mosgorsud-torrent[собачка]yandex.ru
 Вход
ppkBB3cker v.2 © 2008-2014 @ PPK
[ Time : 0.029s | 15 Queries | GZIP : Off ]

Торрент трекер RUTOR.IN, Не можете зайти на rutor.org? Какой новый адрес рутор? Какое зеркало рутор? Не работает rutor.org и зеркала? Тогда наш торрент специально для вас. Rutor.in неофициальное зеркало rutor. В случае если у Вас заблокирован rutor или вдруг Вы не можете на него зайти, то Вы без труда сможете скачать бесплатно и без рекламы последние новинки кино, игр, сериалов и прочего у нас, на Rutor.in. Не нужно использовать прокси, чтобы зайти на рутор, достаточно воспользоваться нашим ресурсом. Все новые фильмы, игры, сериалы, книги и музыка за 2013 и 2014 годы через торрент бесплатно. Скачивайте фильмы в хорошем качестве, игры для пк, xbox, playstation без регистрации. У нас вы найдете новые Зарубежные сериалы и Русские сериалы 2013, 2014, 2015 годов. Оставайтесь с нами, качайте любимые фильмы, игры, сериалы, книги и музыку.