img image001 image001 image001 image001 image001 image001 image001 image001 image001 image001 image001 image001 image001 image001 image001

Planets Sun Sun Sun
Статистика раздачи
Автор: PriZraK | Размер: 1.45 ГБ | Добавлен: 22 сен 2016
Раздают: 41    Качают: 7
Скачать торрент
Скачать торрент
Описание торрента

СообщениеДобавлено: 22 сен 2016 


Информация о фильме
Оригинальное название: Отель последней надежды
Год выпуска: 2016
Жанр: Детектив, мелодрама
Режиссер: Петр Амелин
В ролях: Эмилия Спивак, Павел Делонг, Анна Старшенбаум, Сергей Марин, Оксана Базилевич, Сергей Барковский, Эра Зиганшина, Роман Нечаев, Сергей Колос, Павел Григорьев, Алексей Фокин, Сергей Потехин, Дмитрий Кочкин, Ирина Полянская, Вадим Волков, Владимир Халтурин, Манана Гогитидзе, Антон Мошечков, Алан Томаев, Сергей Барабаш, Татьяна Андриянова, Анна Енжаева, Елена Карпова, Алексей Одинг
О фильме:
Жизнь рухнула в одно мгновенье: от Нади Звонарёвой ушёл муж. А тут еще отель, в котором она работает начальником службы портье, готовится к визиту короля. Введены строжайшие меры безопасности, а вокруг Нади, как специально, начинают твориться странные вещи: на неё нападают грабители, кто-то сжигает семейные фотографии, подбрасывает в квартиру чучело мужа… И всё это на глазах у начальника службы охраны короля - Дэна Уолша, которому теперь нужно во всём разобраться.

Страна: Россия
Студия: ООО "Свэлл Фильм"
Продолжительность: 4 x ~ 00:45:00
Перевод: Не требуется
Файл
Формат: AVI
Качество: WEB-DLRip
Видео: XviD build 73, 656x368 (16:9), 25.000 fps, ~ 1000 Kbps (~ 0.170 bit/pixel)
Звук: 48.0 kHz, MP3, 2/0 ch, 128 kbps
Субтитры: нет
General
Complete name : Otelj.Poslednej.Nadezhdy.2016.XviD.WEB-DLRip.by.GeneralFilmSerija.01.avi
Format : AVI
Format/Info : Audio Video Interleave
File size : 372 MiB
Duration : 44mn 5s
Overall bit rate : 1 180 Kbps
Writing application : VirtualDubMod 1.5.10.3 | www.virtualdub-fr.org || (build 2550/release)
Writing library : VirtualDubMod build 2550/release
Video
ID : 0
Format : MPEG-4 Visual
Format profile : Advanced Simple@L5
Format settings, BVOP : 1
Format settings, QPel : No
Format settings, GMC : No warppoints
Format settings, Matrix : Custom
Codec ID : XVID
Codec ID/Hint : XviD
Duration : 44mn 5s
Bit rate : 1 042 Kbps
Width : 656 pixels
Height : 368 pixels
Display aspect ratio : 16:9
Frame rate : 25.000 fps
Color space : YUV
Chroma subsampling : 4:2:0
Bit depth : 8 bits
Scan type : Progressive
Compression mode : Lossy
Bits/(Pixel*Frame) : 0.173
Stream size : 329 MiB (88%)
Writing library : XviD 73
Audio
ID : 1
Format : MPEG Audio
Format version : Version 1
Format profile : Layer 3
Codec ID : 55
Codec ID/Hint : MP3
Duration : 44mn 5s
Bit rate mode : Constant
Bit rate : 128 Kbps
Channel(s) : 2 channels
Sampling rate : 44.1 KHz
Compression mode : Lossy
Stream size : 40.4 MiB (11%)
Alignment : Split accross interleaves
Interleave, duration : 40 ms (1.00 video frame)
Interleave, preload duratio : 500 ms
Writing library : LAME3.99r
Encoding settings : -m s -V 4 -q 0 -lowpass 17 -b 128





Релиз от:



   Похожие торренты   Торрент   Размер 
В этой теме нет новых непрочитанных сообщений. Отель последней надежды [01-04 из 04] (2016) WEB-DLRip от Files-x

0 | 0

2.15 ГБ

В этой теме нет новых непрочитанных сообщений. Отель последней надежды [01-02 из 04] (2016) WEB-DLRip-AVC от Files-x

54 | 13

2.22 ГБ

В этой теме нет новых непрочитанных сообщений. Отель последней надежды [01-04 из 04] (2016) SATRip-AVC от Files-x

0 | 0

1.85 ГБ

В этой теме нет новых непрочитанных сообщений. Отель последней надежды [01-02 из 04] (2016) SATRip от Files-x

0 | 0

2.15 ГБ

В этой теме нет новых непрочитанных сообщений. Фантазмат 6: Город последней надежды / Phantasmat 6: Town of Lost Hope CE (2015) PC

654 | 13

662.38 МБ

В этой теме нет новых непрочитанных сообщений. Письмо Надежды [01-04 из 04] (2016) WEB-DLRip

33 | 0

2.34 ГБ

В этой теме нет новых непрочитанных сообщений. Письмо Надежды [01-04 из 04] (2016) WEB-DLRip-AVC от Files-x

99 | 32

2.39 ГБ




Вы не можете начинать темы
Вы не можете отвечать на сообщения
Вы не можете редактировать свои сообщения
Вы не можете удалять свои сообщения
Вы не можете добавлять вложения

Перейти:  
Для Мосгорсуда, Роскомнадзора и рекламодателей: mosgorsud-torrent[собачка]yandex.ru
 Вход
ppkBB3cker v.2 © 2008-2014 @ PPK
[ Time : 0.031s | 14 Queries | GZIP : Off ]

Торрент трекер RUTOR.IN, Не можете зайти на rutor.org? Какой новый адрес рутор? Какое зеркало рутор? Не работает rutor.org и зеркала? Тогда наш торрент специально для вас. Rutor.in неофициальное зеркало rutor. В случае если у Вас заблокирован rutor или вдруг Вы не можете на него зайти, то Вы без труда сможете скачать бесплатно и без рекламы последние новинки кино, игр, сериалов и прочего у нас, на Rutor.in. Не нужно использовать прокси, чтобы зайти на рутор, достаточно воспользоваться нашим ресурсом. Все новые фильмы, игры, сериалы, книги и музыка за 2013 и 2014 годы через торрент бесплатно. Скачивайте фильмы в хорошем качестве, игры для пк, xbox, playstation без регистрации. У нас вы найдете новые Зарубежные сериалы и Русские сериалы 2013, 2014, 2015 годов. Оставайтесь с нами, качайте любимые фильмы, игры, сериалы, книги и музыку.