img image001 image001 image001 image001 image001 image001 image001 image001 image001 image001 image001 image001 image001 image001 image001

Planets Sun Sun Sun
Статистика раздачи
Автор: PriZraK | Размер: 9.47 ГБ | Добавлен: 22 сен 2016
Раздают: 20    Качают: 7
Скачать торрент
Скачать торрент
Описание торрента

СообщениеДобавлено: 22 сен 2016 


Безмозглые / BrainDead
Страна: США
Производство: CBS Television Studios, King Size Productions, Scott Free Productions
Год выпуска: 2016
Сезон: 1
Жанр: ужасы, фантастика, триллер, драма, комедия
Продолжительность: 13х ~00:45:00
Режиссеры: Аллан Аркуш, Феликс Энрикез Алькала, Брук Кеннеди
Авторы сценария: Мишель Кинг, Роберт Кинг, Джонатан Толинс
В ролях: Мэри Элизабет Уинстэд, Дэниэл Пино, Аарон Твейт, Тони Шэлуб, Никки М. Джеймс, Жан Максвелл, Джонни Гилл, Пейдж Паттерсон
Описание: План Лорел Хили сделать карьеру в документальном кино складывается далеко не так удачно, как ей хотелось бы, из-за чего она вынуждена согласиться поработать в Конгрессе в команде её брата — сенатора от штата Мэриленд, занимающего пост парламентского организатора фракции демократов. На новом месте девушка сталкивается сразу с двумя серьёзными проблемами. Первая касается непреодолимых разногласий между демократами и республиканцами, грозящих привести к прекращению работы правительства. Вторая заключается в том, что ведущие американские политики подверглись нападению мелких инопланетных существ, питающихся мозгами людей. Чтобы узнать истинные цели этих загадочных жучков, Лорел предстоит объединить усилия с эксцентричным конспирологом Густавом Триплеттом и ординатором Рошель Додье. Число подвергшихся заражению конгрессменов и сенаторов продолжает увеличиваться, что вынуждает главную героиню принять экстренные меры по спасению американцев от полоумных политиков…

Перевод: Любительский (многоголосый, закадровый) | RATTLEBOX
Роли озвучивали: В. Голицин, А. Садовская, А. Маликов, И. Яковлева, А. Шевченко, Н. Колодяжная
Субтитры: нет

Качество: HDTVRip 720p
Формат: МКV
Видео кодек: AVC
Аудио кодек: АС3
Видео: 1280x720 (16:9), 23.976 fps, MPEG-4 AVC ~1 893 kbps avg
Аудио: 48.0 kHz, AC3 Dolby Digital, 2/0 (L,R) ch, ~256 kbps
Дата премьеры (мир): 13 июня 2016

General
Unique ID : 331831212006347071005467991033486784116 (0xF9A45DE48AE7C2FF0E46636A3B603674)
Complete name : Braindead.S01E01.720p.(rattlebox studio).mkv
Format : Matroska
Format version : Version 4 / Version 2
File size : 672 MiB
Duration : 43mn 49s
Overall bit rate : 2 144 Kbps
Encoded date : UTC 2016-06-19 00:15:00
Writing application : mkvmerge v9.2.0 ('Photograph') 64bit
Writing library : libebml v1.3.3 + libmatroska v1.4.4
Video
ID : 1
Format : AVC
Format/Info : Advanced Video Codec
Format profile : High@L4.1
Format settings, CABAC : Yes
Format settings, ReFrames : 9 frames
Codec ID : V_MPEG4/ISO/AVC
Duration : 43mn 39s
Bit rate : 1 893 Kbps
Width : 1 280 pixels
Height : 720 pixels
Display aspect ratio : 16:9
Frame rate mode : Constant
Frame rate : 23.976 (24000/1001) fps
Color space : YUV
Chroma subsampling : 4:2:0
Bit depth : 8 bits
Scan type : Progressive
Bits/(Pixel*Frame) : 0.086
Stream size : 591 MiB (88%)
Writing library : x264 core 148 r2665 a01e339
Encoding settings : cabac=1 / ref=9 / deblock=1:-2:-2 / analyse=0x3:0x133 / me=umh / subme=10 / psy=1 / psy_rd=1.00:0.00 / mixed_ref=1 / me_range=32 / chroma_me=1 / trellis=2 / 8x8dct=1 / cqm=0 / deadzone=21,11 / fast_pskip=0 / chroma_qp_offset=-2 / threads=16 / lookahead_threads=1 / sliced_threads=0 / nr=0 / decimate=1 / interlaced=0 / bluray_compat=0 / constrained_intra=0 / bframes=5 / b_pyramid=2 / b_adapt=2 / b_bias=0 / direct=3 / weightb=1 / open_gop=0 / weightp=2 / keyint=250 / keyint_min=23 / scenecut=40 / intra_refresh=0 / rc_lookahead=60 / rc=crf / mbtree=1 / crf=18.0 / qcomp=0.60 / qpmin=0 / qpmax=69 / qpstep=4 / ip_ratio=1.40 / aq=1:1.00
Language : English
Default : Yes
Forced : No
Color range : Limited
Matrix coefficients : BT.709
Audio
ID : 2
Format : AC-3
Format/Info : Audio Coding 3
Mode extension : CM (complete main)
Format settings, Endianness : Big
Codec ID : A_AC3
Duration : 43mn 49s
Bit rate mode : Constant
Bit rate : 256 Kbps
Channel(s) : 2 channels
Channel positions : Front: L R
Sampling rate : 48.0 KHz
Frame rate : 31.250 fps (1536 spf)
Compression mode : Lossy
Stream size : 80.2 MiB (12%)
Title : rattlebox
Language : Russian
Default : Yes
Forced : No




   Похожие торренты   Торрент   Размер 
В этой теме нет новых непрочитанных сообщений. Безмозглые / BrainDead [01x01-09] (2016) HDTVRip 1080p | RATTLEBOX studio

15 | 32

16.04 ГБ

В этой теме нет новых непрочитанных сообщений. Смерть мозга / Безмозглые / BrainDead [01x01-05] (2016) HDTVRip 1080p | RATTLEBOX studio

20 | 14

8.79 ГБ

В этой теме нет новых непрочитанных сообщений. Смерть мозга / Безмозглые / BrainDead [01x01] (2016) HDTVRip 1080p | RATTLEBOX studio

0 | 1

1.77 ГБ

В этой теме нет новых непрочитанных сообщений. Смерть мозга / Безмозглые / BrainDead [01x01-06] (2016) HDTVRip 1080p | RATTLEBOX studio

23 | 4

10.46 ГБ

В этой теме нет новых непрочитанных сообщений. Смерть мозга / Безмозглые / BrainDead [01x01-08] (2016) HDTVRip 1080p | RATTLEBOX studio

28 | 12

14.26 ГБ

В этой теме нет новых непрочитанных сообщений. Смерть мозга / Безмозглые / BrainDead [01x01-04] (2016) HDTVRip 1080p | RATTLEBOX studio

12 | 8

7.05 ГБ

В этой теме нет новых непрочитанных сообщений. Смерть мозга / Безмозглые / BrainDead [01x01-03] (2016) WEBRip 1080p | RATTLEBOX studio

17 | 12

5.27 ГБ




Вы не можете начинать темы
Вы не можете отвечать на сообщения
Вы не можете редактировать свои сообщения
Вы не можете удалять свои сообщения
Вы не можете добавлять вложения

Перейти:  
Для Мосгорсуда, Роскомнадзора и рекламодателей: mosgorsud-torrent[собачка]yandex.ru
 Вход
ppkBB3cker v.2 © 2008-2014 @ PPK
[ Time : 0.029s | 15 Queries | GZIP : Off ]

Торрент трекер RUTOR.IN, Не можете зайти на rutor.org? Какой новый адрес рутор? Какое зеркало рутор? Не работает rutor.org и зеркала? Тогда наш торрент специально для вас. Rutor.in неофициальное зеркало rutor. В случае если у Вас заблокирован rutor или вдруг Вы не можете на него зайти, то Вы без труда сможете скачать бесплатно и без рекламы последние новинки кино, игр, сериалов и прочего у нас, на Rutor.in. Не нужно использовать прокси, чтобы зайти на рутор, достаточно воспользоваться нашим ресурсом. Все новые фильмы, игры, сериалы, книги и музыка за 2013 и 2014 годы через торрент бесплатно. Скачивайте фильмы в хорошем качестве, игры для пк, xbox, playstation без регистрации. У нас вы найдете новые Зарубежные сериалы и Русские сериалы 2013, 2014, 2015 годов. Оставайтесь с нами, качайте любимые фильмы, игры, сериалы, книги и музыку.