img image001 image001 image001 image001 image001 image001 image001 image001 image001 image001 image001 image001 image001 image001 image001

Planets Sun Sun Sun
Статистика раздачи
Автор: PriZraK | Размер: 889.32 МБ | Добавлен: 22 сен 2016
Раздают: 14    Качают: 6
Скачать торрент
Скачать торрент
Описание торрента

СообщениеДобавлено: 22 сен 2016 


Информация о фильме
Оригинальное название: Пёс
Год выпуска: 2016
Жанр: Детектив
Режиссеры: Николай Каптан, Игорь Забара
В ролях: Андрей Саминин, Никита Панфилов, Михаил Жонин, Ольга Олексий, Денис Роднянский, Светлана Зельбет, Ольга Морозова, Тарас Мельничук
О фильме:
Макс – алкоголик. Когда-то лучший сыщик в городе, Макс потерял все – работу, друзей, жену. У него остался единственный друг – Пес. После серии погонь, драк и перестрелок, Пес и Макс раскрыли тайну загадочного убийства. Макс с Псом снова стали детективами. Теперь каждый день начинается с того, что Пес и Макс пытаются выяснить, кто совершил преступление... И выяснить – кто из них лучший сыщик в городе!

Страна: Украина
Студия: Кинокомпания «PRO-TV»
Продолжительность: 1 x ~ 00:46:00
Перевод: Не требуется
Файл
Формат: AVI
Качество: WEB-DLRip
Видео: XviD build 73, 688x384 (16:9), 25.000 fps, ~ 1100 Kbps (~ 0.160 bit/pixel)
Звук: 48.0 kHz, MP3, 2/0 ch, 128 kbps
Субтитры: нет
General
Complete name : Pes.2.2016.XviD.WEB-DLRip.by.GeneralFilmСерия 01.avi
Format : AVI
Format/Info : Audio Video Interleave
File size : 445 MiB
Duration : 49mn 53s
Overall bit rate : 1 246 Kbps
Writing application : VirtualDubMod 1.5.10.3 | www.virtualdub-fr.org || (build 2550/release)
Writing library : VirtualDubMod build 2550/release
Video
ID : 0
Format : MPEG-4 Visual
Format profile : Advanced Simple@L5
Format settings, BVOP : 1
Format settings, QPel : No
Format settings, GMC : No warppoints
Format settings, Matrix : Custom
Codec ID : XVID
Codec ID/Hint : XviD
Duration : 49mn 53s
Bit rate : 1 109 Kbps
Width : 688 pixels
Height : 384 pixels
Display aspect ratio : 16:9
Frame rate : 25.000 fps
Color space : YUV
Chroma subsampling : 4:2:0
Bit depth : 8 bits
Scan type : Progressive
Compression mode : Lossy
Bits/(Pixel*Frame) : 0.168
Stream size : 396 MiB (89%)
Writing library : XviD 73
Audio
ID : 1
Format : MPEG Audio
Format version : Version 1
Format profile : Layer 3
Codec ID : 55
Codec ID/Hint : MP3
Duration : 49mn 52s
Bit rate mode : Constant
Bit rate : 128 Kbps
Channel(s) : 2 channels
Sampling rate : 48.0 KHz
Compression mode : Lossy
Stream size : 45.7 MiB (10%)
Alignment : Aligned on interleaves
Interleave, duration : 40 ms (1.00 video frame)
Interleave, preload duratio : 504 ms
Writing library : LAME3.99r
Encoding settings : -m s -V 4 -q 0 -lowpass 17 -b 128



Релиз от:



   Похожие торренты   Торрент   Размер 
В этой теме нет новых непрочитанных сообщений. Тайны Чапман [02х01-02] (2016) WEB-DLRip от Generalfilm

0 | 0

1.32 ГБ

В этой теме нет новых непрочитанных сообщений. Выжить в лесу [02х01-02] (2016) WEB-DLRip от Generalfilm

164 | 21

1.3 ГБ

В этой теме нет новых непрочитанных сообщений. Тайны Чапман [02х01-12] (2016) WEB-DLRip от Generalfilm

0 | 1

7.35 ГБ

В этой теме нет новых непрочитанных сообщений. Тайны Чапман [02х01-03] (2016) WEB-DLRip от Generalfilm

2 | 0

1.99 ГБ

В этой теме нет новых непрочитанных сообщений. Выжить в лесу [02х01-02] (2016) WEB-DLRip от Generalfilm

107 | 23

2.69 ГБ

В этой теме нет новых непрочитанных сообщений. Тайны Чапман [02х01-13] (2016) WEB-DLRip от Generalfilm

0 | 0

8.55 ГБ

В этой теме нет новых непрочитанных сообщений. Тайны Чапман [02х01-13] (2016) WEB-DLRip от Generalfilm

5 | 2

10.95 ГБ




Вы не можете начинать темы
Вы не можете отвечать на сообщения
Вы не можете редактировать свои сообщения
Вы не можете удалять свои сообщения
Вы не можете добавлять вложения

Перейти:  
Для Мосгорсуда, Роскомнадзора и рекламодателей: mosgorsud-torrent[собачка]yandex.ru
 Вход
ppkBB3cker v.2 © 2008-2014 @ PPK
[ Time : 0.061s | 15 Queries | GZIP : Off ]

cron