img image001 image001 image001 image001 image001 image001 image001 image001 image001 image001 image001 image001 image001 image001 image001

Planets Sun Sun Sun
Статистика раздачи
Автор: PriZraK | Размер: 659.51 МБ | Добавлен: 23 сен 2016
Раздают: 70    Качают: 6
Скачать торрент
Скачать торрент
Описание торрента

СообщениеДобавлено: 23 сен 2016 


Супермакс / Supermax
Страна: Бразилия
Производство: Central Globo de Produção
Год выпуска: 2016
Сезон: 1
Жанр: приключения, ужасы, триллер
Продолжительность: х ~00:40:00
Режиссер: Жозе Алваренга мл., Луис Энрике Кампос
Авторы сценария: Жозе Алваренга мл., Маркаль Акино, Фернандо Бонасси, Каролина Котшо
В ролях: Равел Андради, Бруно Белармино, Педро Биал, Эром Кордейру, Вания де Брито, Харильдо Деда, Руй Рикардо Диас, Клео Пирес, Ф. Гугли
Описание: Двеннадцать человек отобраны для уникального реалити-шоу: 3 месяца в тюрьме супермаксимальной безопасности посреди лесов Амазонии и никакого контакта с внешним миром. Главный приз — 2 миллиона реалов. Всех участников объединяет то, что у них были или есть проблемы с правосудием. Однако со временем, казалось бы, совершенно обыкновенная телепередача превращается в нечто более жуткое и пугающее...

Перевод: Любительский (двухголосый, закадровый) | Avebrasil
Субтитры: нет

Качество: HDTVRip
Формат: AVI
Видео кодек: XviD
Аудио кодек: AC3
Видео: 720х400 (16:9), 29.970 fps, XviD build 73 ~1 999 kbps avg
Аудио: 48.0 kHz, AC3 Dolby Digital, 2/0 (L,R) ch, ~192 kbps
Дата премьеры (мир): 16 сентября 2016

General
Полное имя : Супер Макс - 01.avi
Формат : AVI
Формат/Информация : Audio Video Interleave
Размер файла : 660 Мбайт
Продолжительность : 41 м.
Общий поток : 2203 Кбит/сек
Программа кодирования : VirtualDubMod 1.5.10.3 | (build 2550/release)
Библиотека кодирования : VirtualDubMod build 2550/release
Видео
Идентификатор : 0
Формат : MPEG-4 Visual
Профиль формата : Advanced Simple@L5
Параметр BVOP формата : 2
Параметр QPel формата : Нет
Параметр GMC формата : Без точки перехода
Параметр матрицы формата : Default (MPEG)
Режим смешивания : Сжатый битовый поток
Идентификатор кодека : XVID
Идентификатор кодека/Подсказка : XviD
Продолжительность : 41 м.
Битрейт : 1999 Кбит/сек
Ширина : 720 пикселей
Высота : 400 пикселей
Соотношение сторон : 16:9
Частота кадров : 29,970 (29970/1000) кадров/сек
Цветовое пространство : YUV
Субдискретизация насыщенности : 4:2:0
Битовая глубина : 8 бит
Тип развёртки : Прогрессивная
Метод сжатия : С потерями
Бит/(Пиксели*Кадры) : 0.232
Размер потока : 598 Мбайт (91%)
Библиотека кодирования : XviD 73
Аудио
Идентификатор : 1
Формат : AC-3
Формат/Информация : Audio Coding 3
Расширение режима : CM (complete main)
Параметр Endianness формата : Big
Идентификатор кодека : 2000
Продолжительность : 41 м.
Вид битрейта : Постоянный
Битрейт : 192 Кбит/сек
Каналы : 2 канала
Расположение каналов : Front: L R
Частота : 48,0 КГц
Частота кадров : 31,250 кадров/сек (1536 spf)
Метод сжатия : С потерями
Размер потока : 57,5 Мбайт (9%)
Выравнивание : Разделение по промежуткам
Продолжительность промежутка : 33 мс. (1,00 видеокадр)
Время предзагрузки промежутка : 500 мс.




   Похожие торренты   Торрент   Размер 
В этой теме нет новых непрочитанных сообщений. Супермакс / Supermax [01х01-01 из 12] (2016) HDTVRip 720p | L2

18 | 2

1013.96 МБ

В этой теме нет новых непрочитанных сообщений. Supermax - The Best Of [3CD] (2014) FLAC

328 | 24

1.5 ГБ

В этой теме нет новых непрочитанных сообщений. Supermax - The Best Of [3CD] (2014) MP3 от BestSound ExKinoRay

378 | 61

541.44 МБ

В этой теме нет новых непрочитанных сообщений. Supermax - Greatest Hits (2012) MP3

421 | 9

377.9 МБ

В этой теме нет новых непрочитанных сообщений. Prison Tycoon 4: SuperMax (2008) PC

254 | 10

623.41 МБ

В этой теме нет новых непрочитанных сообщений. Supermax - Romantic Ballads (1998) APE

95 | 6

411.22 МБ

В этой теме нет новых непрочитанных сообщений. Supermax - Best Of - 30th Anniversary Edition [2CD] (2008) APE

2 | 3

977.67 МБ




Вы не можете начинать темы
Вы не можете отвечать на сообщения
Вы не можете редактировать свои сообщения
Вы не можете удалять свои сообщения
Вы не можете добавлять вложения

Перейти:  
Для Мосгорсуда, Роскомнадзора и рекламодателей: mosgorsud-torrent[собачка]yandex.ru
 Вход
ppkBB3cker v.2 © 2008-2014 @ PPK
[ Time : 0.035s | 16 Queries | GZIP : Off ]

Торрент трекер RUTOR.IN, Не можете зайти на rutor.org? Какой новый адрес рутор? Какое зеркало рутор? Не работает rutor.org и зеркала? Тогда наш торрент специально для вас. Rutor.in неофициальное зеркало rutor. В случае если у Вас заблокирован rutor или вдруг Вы не можете на него зайти, то Вы без труда сможете скачать бесплатно и без рекламы последние новинки кино, игр, сериалов и прочего у нас, на Rutor.in. Не нужно использовать прокси, чтобы зайти на рутор, достаточно воспользоваться нашим ресурсом. Все новые фильмы, игры, сериалы, книги и музыка за 2013 и 2014 годы через торрент бесплатно. Скачивайте фильмы в хорошем качестве, игры для пк, xbox, playstation без регистрации. У нас вы найдете новые Зарубежные сериалы и Русские сериалы 2013, 2014, 2015 годов. Оставайтесь с нами, качайте любимые фильмы, игры, сериалы, книги и музыку.