img image001 image001 image001 image001 image001 image001 image001 image001 image001 image001 image001 image001 image001 image001 image001

Planets Sun Sun Sun
Статистика раздачи
Автор: PriZraK | Размер: 6.76 ГБ | Добавлен: 23 сен 2016
Раздают: 38    Качают: 15
Скачать торрент
Скачать торрент
Описание торрента

СообщениеДобавлено: 23 сен 2016 


«Сезон: 1 / Серии: 1-6 (6)»


Информация о сериале
Название: Волчья яма
Оригинальное название: Wolf Creek
Год выхода: 2016
Страна: Австралия
Студии: Emu Creek Pictures | Screentime
Жанр: ужасы, триллер, драма
Продолжительность: 6 x ~46 мин.
Перевод: Любительский (многоголосый закадровый) - [KinoView] ex-Несмертельное оружие
Cубтитры: отсутствуют
Режиссеры: Грег МакЛин, Тони Тилс
В ролях: Люси Фрай, Джон Джэррэт, Дастин Клер, Эдди Бару, Алисия Гардинер, Энди МакФи, Ричард Коуторн, Джэйк Райан, Лиана Корнелл, Мэтт Леветт, Камерон Колфилд, Трэвис Джеффри, Дебора Мэйлман, Николь Мурланд и др.
Описание:
Ева могла стать очередной жертвой сумасшедшего серийного убийцы Мика Тейлора. Но ей удается избежать смерти от рук маньяка. И теперь она одержима одной только местью.

Файл
Качество: WEBRip 720p
Формат: MKV
Видео кодек: H264
Аудио кодек: AC3
Видео: 1280x640 (2.000), 30.000 fps, ~3307 Kbps, 0.116 bit/pixel
| Аудио #1: 48 kHz, AC3 Dolby Digital, 2/0 (L,R) ch, ~192.00 kbps | Rus | MVO
| Аудио #2: 48 kHz, AC3 Dolby Digital, 2/0 (L,R) ch, ~192.00 kbps | Eng | Original

Релиз от: KinoView



Эпизод: 01 - «Мёртвая река» (Billabong)
Эпизод: 02 - «Кутйукутйу» (Kutyukutyu)
Эпизод: 03 - «Соленое озеро» (Salt Lake)
Эпизод: 04 - «Опалвиль» (Opalville)
Эпизод: 05 - «Рим» (Rome)
Эпизод: 06 - «Волчья яма» (Wolf Creek)

Код:
General
Unique ID                   : 191245439287401017912003660941397765469 (0x8FE08825B0BD3D0EA5A6FA7A7D6EAD5D)
Complete name               : Wolf.Creek.S01E01.Billabong.WEBRip.720p.H.264.RUS.-KinoView.mkv
Format                      : Matroska
Format version              : Version 2
File size                   : 1.06 GiB
Duration                    : 46mn 4s
Overall bit rate mode       : Variable
Overall bit rate            : 3 307 Kbps
Movie name                  : Волчья яма / Сезон: 1 / Эпизод: 01 -  Мёртвая река
Encoded date                : UTC 2016-09-22 12:43:59
Writing application         : mkvmerge v5.2.1 ('A Far Off Place') built on Jan  2 2012 23:21:10
Writing library             : libebml v1.2.3 + libmatroska v1.3.0
Cover                       : Yes
Attachments                 : Cover.jpg
Video
ID                          : 1
Format                      : AVC
Format/Info                 : Advanced Video Codec
Format profile              : High@L4.1
Format settings, CABAC      : Yes
Format settings, ReFrames   : 3 frames
Muxing mode                 : Header stripping
Codec ID                    : V_MPEG4/ISO/AVC
Duration                    : 46mn 4s
Bit rate mode               : Variable
Bit rate                    : 2 857 Kbps
Maximum bit rate            : 3 000 Kbps
Width                       : 1 280 pixels
Height                      : 640 pixels
Display aspect ratio        : 2.000
Frame rate mode             : Constant
Frame rate                  : 30.000 fps
Standard                    : PAL
Color space                 : YUV
Chroma subsampling          : 4:2:0
Bit depth                   : 8 bits
Scan type                   : Progressive
Bits/(Pixel*Frame)          : 0.116
Stream size                 : 942 MiB (86%)
Title                       : Релиз от: KinoView
Writing library             : x264 core 112
Encoding settings           : cabac=1 / ref=3 / deblock=1:0:0 / analyse=0x3:0x113 / me=hex / subme=7 / psy=1 / psy_rd=1.00:0.00 / mixed_ref=1 / me_range=16 / chroma_me=1 / trellis=1 / 8x8dct=1 / cqm=2 / deadzone=21,11 / fast_pskip=1 / chroma_qp_offset=-2 / threads=12 / sliced_threads=0 / slices=1 / nr=0 / decimate=1 / interlaced=0 / constrained_intra=0 / bframes=3 / b_pyramid=0 / b_adapt=1 / b_bias=0 / direct=1 / weightb=1 / open_gop=0 / weightp=2 / keyint=250 / keyint_min=25 / scenecut=40 / intra_refresh=0 / rc_lookahead=40 / rc=crf / mbtree=1 / crf=1.0 / qcomp=0.60 / qpmin=3 / qpmax=51 / qpstep=4 / vbv_maxrate=3000 / vbv_bufsize=2998 / crf_max=51.0 / nal_hrd=vbr / frame-packing=0 / ip_ratio=1.40 / aq=1:1.00
Language                    : English
Default                     : Yes
Forced                      : No
Color range                 : Limited
Color primaries             : BT.709
Transfer characteristics    : BT.709
Matrix coefficients         : BT.709
Audio #1
ID                          : 2
Format                      : AC-3
Format/Info                 : Audio Coding 3
Mode extension              : CM (complete main)
Format settings, Endianness : Big
Muxing mode                 : Header stripping
Codec ID                    : A_AC3
Duration                    : 46mn 4s
Bit rate mode               : Constant
Bit rate                    : 192 Kbps
Channel(s)                  : 2 channels
Channel positions           : Front: L R
Sampling rate               : 48.0 KHz
Frame rate                  : 31.250 fps (1536 spf)
Compression mode            : Lossy
Stream size                 : 63.3 MiB (6%)
Title                       : MVO (KinoView)
Language                    : Russian
Default                     : Yes
Forced                      : No
Audio #2
ID                          : 3
Format                      : AC-3
Format/Info                 : Audio Coding 3
Mode extension              : CM (complete main)
Format settings, Endianness : Big
Muxing mode                 : Header stripping
Codec ID                    : A_AC3
Duration                    : 46mn 4s
Bit rate mode               : Constant
Bit rate                    : 192 Kbps
Channel(s)                  : 2 channels
Channel positions           : Front: L R
Sampling rate               : 48.0 KHz
Frame rate                  : 31.250 fps (1536 spf)
Compression mode            : Lossy
Stream size                 : 63.3 MiB (6%)
Title                       : Original
Language                    : English
Default                     : No
Forced                      : No
 




   Похожие торренты   Торрент   Размер 
В этой теме нет новых непрочитанных сообщений. Волчья яма / Wolf Creek [S01] (2016) WEBRip 720p | KinoView

0 | 0

2.82 ГБ

В этой теме нет новых непрочитанных сообщений. Волчья яма / Wolf Creek [S01] (2016) WEBRip | L1

272 | 120

3.37 ГБ

В этой теме нет новых непрочитанных сообщений. Волчья яма / Wolf Creek [S01] (2016) WEBRip 720р | L1

197 | 64

2.43 ГБ

В этой теме нет новых непрочитанных сообщений. Волчья яма / Wolf Creek [S01] (2016) WEBRip 720р | L, L2, L1

74 | 10

3.54 ГБ

В этой теме нет новых непрочитанных сообщений. Волчья яма / Wolf Creek [S01] (2016) WEBRip | КПК от ImperiaFilm | L1

24 | 1

994.96 МБ

В этой теме нет новых непрочитанных сообщений. Волчья яма / Wolf Creek [01x01 из 06] (2016) WEBRip | ViruseProject

3 | 1

663.85 МБ

В этой теме нет новых непрочитанных сообщений. Волчья яма / Wolf Creek [S01] (2016) WEBRip 720р от GeneralFilm | BaibaKo

80 | 16

3.14 ГБ




Вы не можете начинать темы
Вы не можете отвечать на сообщения
Вы не можете редактировать свои сообщения
Вы не можете удалять свои сообщения
Вы не можете добавлять вложения

Перейти:  
Для Мосгорсуда, Роскомнадзора и рекламодателей: mosgorsud-torrent[собачка]yandex.ru
 Вход
ppkBB3cker v.2 © 2008-2014 @ PPK
[ Time : 0.047s | 15 Queries | GZIP : On ]

Торрент трекер RUTOR.IN, Не можете зайти на rutor.org? Какой новый адрес рутор? Какое зеркало рутор? Не работает rutor.org и зеркала? Тогда наш торрент специально для вас. Rutor.in неофициальное зеркало rutor. В случае если у Вас заблокирован rutor или вдруг Вы не можете на него зайти, то Вы без труда сможете скачать бесплатно и без рекламы последние новинки кино, игр, сериалов и прочего у нас, на Rutor.in. Не нужно использовать прокси, чтобы зайти на рутор, достаточно воспользоваться нашим ресурсом. Все новые фильмы, игры, сериалы, книги и музыка за 2013 и 2014 годы через торрент бесплатно. Скачивайте фильмы в хорошем качестве, игры для пк, xbox, playstation без регистрации. У нас вы найдете новые Зарубежные сериалы и Русские сериалы 2013, 2014, 2015 годов. Оставайтесь с нами, качайте любимые фильмы, игры, сериалы, книги и музыку.