img image001 image001 image001 image001 image001 image001 image001 image001 image001 image001 image001 image001 image001 image001 image001

Planets Sun Sun Sun
Статистика раздачи
Автор: PriZraK | Размер: 4.34 ГБ | Добавлен: 24 сен 2016
Раздают: 139    Качают: 59
Скачать торрент
Скачать торрент
Описание торрента

СообщениеДобавлено: 24 сен 2016 


Информация о фильме
Оригинальное название: Карина красная
Год выпуска: 2016
Жанр: Мелодрама, криминал
Режиссер: Евгений Лаврентьев
В ролях: Марина Коняшкина, Юрий Чурсин, Сергей Юшкевич, Антон Батырев, Алексей Коряков, Наталья Батрак, Григорий Калинин, Светлана Корчагина, Николай Сахаров, Стефан Гетц Тим, Зураб Миминошвили, Игорь Поселенов, Виктор Полторацкий, Михаил Негин, Максим Зыков, Дмитрий Сидоров (II), Елена Степанова (II)
О фильме:
Первая любовь «комсомолки и красавицы» Карины оказывается несчастливой. Ее парень Миша, виновный в гибели пешехода, позволяет Карине взять вину на себя и рвёт с ней отношения. Неожиданно Карина получает предложение о замужестве от приятеля ее отца – влиятельного и зрелого мужчины, хозяина часовой мастерской. Разочаровавшись в своих иллюзиях, девушка выходит замуж за человека, которому есть что скрывать

Страна: Россия
Студия: Кинокомпания «Русское»
Продолжительность: 1 x ~ 00:45:00
Перевод: Не требуется
Файл
Формат: AVI
Качество: WEB-DLRip
Видео: XviD build 73, 720x400 (16:9), 25.000 fps, ~ 1500 Kbps (~ 0.210 bit/pixel)
Звук: 48.0 kHz, АС3, 2/0 ch, 192 kbps
Субтитры: нет
General
Complete name : Karina.Krasnaja.2016.WEB-DLRip.by.GeneralFilmSerija.01.avi
Format : AVI
Format/Info : Audio Video Interleave
File size : 555 MiB
Duration : 46mn 6s
Overall bit rate : 1 683 Kbps
Writing application : VirtualDubMod 1.5.10.3 | www.virtualdub-fr.org || (build 2550/release)
Writing library : VirtualDubMod build 2550/release
Video
ID : 0
Format : MPEG-4 Visual
Format profile : Advanced Simple@L5
Format settings, BVOP : 1
Format settings, QPel : No
Format settings, GMC : No warppoints
Format settings, Matrix : Custom
Codec ID : XVID
Codec ID/Hint : XviD
Duration : 46mn 6s
Bit rate : 1 481 Kbps
Width : 720 pixels
Height : 400 pixels
Display aspect ratio : 16:9
Frame rate : 25.000 fps
Color space : YUV
Chroma subsampling : 4:2:0
Bit depth : 8 bits
Scan type : Progressive
Compression mode : Lossy
Bits/(Pixel*Frame) : 0.206
Stream size : 489 MiB (88%)
Writing library : XviD 73
Audio
ID : 1
Format : AC-3
Format/Info : Audio Coding 3
Mode extension : CM (complete main)
Format settings, Endianness : Big
Codec ID : 2000
Duration : 46mn 6s
Bit rate mode : Constant
Bit rate : 192 Kbps
Channel(s) : 2 channels
Channel positions : Front: L R
Sampling rate : 48.0 KHz
Frame rate : 31.250 fps (1536 spf)
Compression mode : Lossy
Stream size : 63.3 MiB (11%)
Alignment : Split accross interleaves
Interleave, duration : 40 ms (1.00 video frame)
Interleave, preload duratio : 500 ms



Релиз от:



   Похожие торренты   Торрент   Размер 
В этой теме нет новых непрочитанных сообщений. Карина красная [01 из 08] (2016) WEB-DLRip от GeneralFilm

1 | 3

3.25 ГБ

В этой теме нет новых непрочитанных сообщений. Карина красная [01-04 из 08] (2016) WEB-DLRip-AVC от Files-x

21 | 18

4.55 ГБ

В этой теме нет новых непрочитанных сообщений. Карина красная [01-04 из 08] (2016) WEB-DLRip-AVC от Files-x

5 | 1

2.28 ГБ

В этой теме нет новых непрочитанных сообщений. Карина красная [01-02 из 8] (2016) HDTVRip от Files-x

0 | 0

2.15 ГБ

В этой теме нет новых непрочитанных сообщений. Карина красная [01-02 из 08] (2016) HDTVRip-AVC от Files-x

0 | 0

2.73 ГБ

В этой теме нет новых непрочитанных сообщений. Карина красная [01-02 из 08] (2016) HDTVRip-AVC от Files-x

0 | 0

4.1 ГБ

В этой теме нет новых непрочитанных сообщений. Карина красная [01-02 из 8] (2016) HDTVRip от Files-x

9 | 4

3.22 ГБ




Вы не можете начинать темы
Вы не можете отвечать на сообщения
Вы не можете редактировать свои сообщения
Вы не можете удалять свои сообщения
Вы не можете добавлять вложения

Перейти:  
Для Мосгорсуда, Роскомнадзора и рекламодателей: mosgorsud-torrent[собачка]yandex.ru
 Вход
ppkBB3cker v.2 © 2008-2014 @ PPK
[ Time : 0.545s | 15 Queries | GZIP : Off ]

Торрент трекер RUTOR.IN, Не можете зайти на rutor.org? Какой новый адрес рутор? Какое зеркало рутор? Не работает rutor.org и зеркала? Тогда наш торрент специально для вас. Rutor.in неофициальное зеркало rutor. В случае если у Вас заблокирован rutor или вдруг Вы не можете на него зайти, то Вы без труда сможете скачать бесплатно и без рекламы последние новинки кино, игр, сериалов и прочего у нас, на Rutor.in. Не нужно использовать прокси, чтобы зайти на рутор, достаточно воспользоваться нашим ресурсом. Все новые фильмы, игры, сериалы, книги и музыка за 2013 и 2014 годы через торрент бесплатно. Скачивайте фильмы в хорошем качестве, игры для пк, xbox, playstation без регистрации. У нас вы найдете новые Зарубежные сериалы и Русские сериалы 2013, 2014, 2015 годов. Оставайтесь с нами, качайте любимые фильмы, игры, сериалы, книги и музыку.
cron