img image001 image001 image001 image001 image001 image001 image001 image001 image001 image001 image001 image001 image001 image001 image001

Planets Sun Sun Sun
Статистика раздачи
Автор: PriZraK | Размер: 2.18 ГБ | Добавлен: 24 сен 2016, 21:32
Раздают: 286    Качают: 87
Скачать торрент
Скачать торрент
Описание торрента

СообщениеДобавлено: 24 сен 2016, 21:32 


Информация о фильме
Оригинальное название: Агентство скрытых камер
Год выпуска: 2016
Жанр: Детектив, криминал
Режиссер: Слава Падалка, Андрей Канивченко
В ролях: Эдуард Флёров, Антонина Комиссарова, Руслан Корнеков, Антон Филипенко
О фильме:
Основатель «Агентства скрытых камер» Михаил Трошин - бывший полковник ФСБ, который уволился в запас после неудачной операции. В каждой серии в его детективное бюро обращаются клиенты, которым угрожает опасность. Ноу-хау Трошина - скрытое наблюдение, которое гораздо эффективнее работы с уликами и допросов, на которых преступники ловко скрывают правду. Агентство располагает техническими средствами, которые подключаются к любому электронному устройству, записывающему изображение или звук. Это позволяет команде Трошина предотвращать преступления и выводить злоумышленников на чистую воду.

Страна: Россия
Студия: Кинокомпания «Русское»
Продолжительность: 10 x ~ 00:30:00
Перевод: Не требуется
Файл
Формат: AVI
Качество: HDTVRip
Видео: XviD build 73, 656x368 (16:9), 25.000 fps, ~ 950 Kbps (~ 0.155 bit/pixel)
Звук: 48.0 kHz, MP3, 2/0 ch, 128 kbps
Субтитры: нет
General
Complete name : Agenstvo.Skrytyh.Kamer.2016.XviD.HDTVRip.by.GeneralFilmSerija.01.avi
Format : AVI
Format/Info : Audio Video Interleave
File size : 223 MiB
Duration : 28mn 46s
Overall bit rate : 1 083 Kbps
Writing application : VirtualDubMod 1.5.10.3 | www.virtualdub-fr.org || (build 2550/release)
Writing library : VirtualDubMod build 2550/release
Video
ID : 0
Format : MPEG-4 Visual
Format profile : Advanced Simple@L5
Format settings, BVOP : 1
Format settings, QPel : No
Format settings, GMC : No warppoints
Format settings, Matrix : Custom
Codec ID : XVID
Codec ID/Hint : XviD
Duration : 28mn 46s
Bit rate : 945 Kbps
Width : 656 pixels
Height : 368 pixels
Display aspect ratio : 16:9
Frame rate : 25.000 fps
Color space : YUV
Chroma subsampling : 4:2:0
Bit depth : 8 bits
Scan type : Progressive
Compression mode : Lossy
Bits/(Pixel*Frame) : 0.157
Stream size : 194 MiB (87%)
Writing library : XviD 73
Audio
ID : 1
Format : MPEG Audio
Format version : Version 1
Format profile : Layer 3
Codec ID : 55
Codec ID/Hint : MP3
Duration : 28mn 46s
Bit rate mode : Constant
Bit rate : 128 Kbps
Channel(s) : 2 channels
Sampling rate : 48.0 KHz
Compression mode : Lossy
Stream size : 26.3 MiB (12%)
Alignment : Aligned on interleaves
Interleave, duration : 40 ms (1.00 video frame)
Interleave, preload duratio : 504 ms
Writing library : LAME3.99r
Encoding settings : -m s -V 4 -q 0 -lowpass 17 -b 128



Релиз от:



   Похожие торренты   Торрент   Размер 
В этой теме нет новых непрочитанных сообщений. Агентство скрытых камер [01-02 из 10] (2016) HDTVRip от Files-x

0 | 0

1.96 ГБ

В этой теме нет новых непрочитанных сообщений. Агентство скрытых камер [01 из 10] (2016) HDTVRip-AVC от Files-x

0 | 0

2.24 ГБ

В этой теме нет новых непрочитанных сообщений. Агентство скрытых камер [01 из 10] (2016) HDTVRip 720p от ivandubskoj

11 | 5

3.01 ГБ

В этой теме нет новых непрочитанных сообщений. Агентство скрытых камер [01 из 10] (2016) HDTV 1080i от Files-x

0 | 0

9.66 ГБ

В этой теме нет новых непрочитанных сообщений. Агентство знакомств Сирано / Брачное агентство «Сирано» / Yeonaejojakdan: Shirano / Dating Agency: Cyrano [01-16 из 16] (2013) HDTVRip | L2

6 | 7

9 ГБ

В этой теме нет новых непрочитанных сообщений. Агентство специальных расследований [38 из 39] (2013) SATRip от Generalfilm

38 | 66

21.74 ГБ

В этой теме нет новых непрочитанных сообщений. Сборка игр для владельцев веб-камер (2010) PC

11 | 7

138.21 МБ




Вы не можете начинать темы
Вы не можете отвечать на сообщения
Вы не можете редактировать свои сообщения
Вы не можете удалять свои сообщения
Вы не можете добавлять вложения

Перейти:  
Для Мосгорсуда, Роскомнадзора и рекламодателей: mosgorsud-torrent[собачка]yandex.ru
Настройки
ppkBB3cker v.2 © 2008-2014 @ PPK
[ Time : 0.552s | 14 Queries | GZIP : Off ]
CGP [Extreme] output time : 0.00016s | 0 Queries | GZIP : Off

Торрент трекер RUTOR.IN, Не можете зайти на rutor.org? Какой новый адрес рутор? Какое зеркало рутор? Не работает rutor.org и зеркала? Тогда наш торрент специально для вас. Rutor.in неофициальное зеркало rutor. В случае если у Вас заблокирован rutor или вдруг Вы не можете на него зайти, то Вы без труда сможете скачать бесплатно и без рекламы последние новинки кино, игр, сериалов и прочего у нас, на Rutor.in. Не нужно использовать прокси, чтобы зайти на рутор, достаточно воспользоваться нашим ресурсом. Все новые фильмы, игры, сериалы, книги и музыка за 2013 и 2014 годы через торрент бесплатно. Скачивайте фильмы в хорошем качестве, игры для пк, xbox, playstation без регистрации. У нас вы найдете новые Зарубежные сериалы и Русские сериалы 2013, 2014, 2015 годов. Оставайтесь с нами, качайте любимые фильмы, игры, сериалы, книги и музыку.