img image001 image001 image001 image001 image001 image001 image001 image001 image001 image001 image001 image001 image001 image001 image001

Planets Sun Sun Sun
Статистика раздачи
Автор: PriZraK | Размер: 4.36 ГБ | Добавлен: 26 сен 2016
Раздают: 194    Качают: 121
Скачать торрент
Скачать торрент
Описание торрента

СообщениеДобавлено: 26 сен 2016 


Информация о фильме
Оригинальное название: Внутреннее расследование
Год выпуска: 2016
Жанр: Боевик, детектив, криминал
Режиссер: Вадим Саетгалиев
В ролях: Дмитрий Певцов, Сергей Власов (S.A.V.), Сергей Мардарь, Владимир Богданов, Алексей Лысенко, Андрей Родимов, Борис Чистяков, Филипп Чевычелов, Виталий Жигалин, Александр Матвеев (II), Игорь Папылев, Василий Реутов, Анатолий Журавин, Анастасия Самарская, Евгений Тележкин, Наталья Гусева (IV), Егор Лесников, Олег Метелев, Вадим Алфёров, Татьяна Верховская, Герасим Архипов, Дмитрий Макеев, Наталия Тарыничева, Сергей Ионкин, Игорь Мосюк, Николай Харитонов (II), Владимир Лекус, Сергей Синцов, Федор Гукасян, Дмитрий Олейник, Андрей Бабенко, Владимир Шагин, Михаил Елисеев, Александр Голубев (III), Филипп Могильницкий, Борис Батуев, Валерий Коваленко, Андрей Мокеев, Алла Еминцева, Александр Лисицын, Константин Демидов, Сергей Воробьёв (IV), Никита Чеканов, Виктор Бабич, Роман Каганович, Александр Михайлов-Уральский, Елена Зубович, Михаил Сиворин, Василий Гузов, Вадим Лымарь, Георгий Маришин, Евгений Добряков, Ромуальд Макаренко, Сергей Евдокимов, Денис Ворошилов, Екатерина Белова (II), Наталия Вязовская, Александр Дубравин, Антон Багров, Роман Бокашевский, Андрей Марусин, Светлана Слижикова, Юрий Дормидонтов, Юрий Калугин, Максим Толстиков, Илья Демидов, Алексей Белозерцев, Максим Головчанов, Михаил Бондарук, Олег Куртанидзе
О фильме:
Новая захватывающая история о нелегкой судьбе начальника убойного отдела Рустема Зайнулина. Современная полиция. Кто в ней – честный «мент»? Кто - «оборотень»? Зайнулина обвиняют в убийстве своего подчиненного - агента под прикрытием. Накануне этого убийства Зайнуллин узнает от своего агента где скрывается криминальный авторитет Низамов. Этот бандит уже давно разыскивается за убийства и Зайнуллин бросается по следу. Но почти сразу его задерживают сотрудники управления собственной безопасности (УСБ). Зачем начальнику убойного отдела понадобилось убивать своего коллегу, так ли уж прав глава отдела «спецопераций» Латунин, который преследует Зайнулина? Разобраться в этом призывают не так давно вернувшегося в строй с заслуженного отдыха полковника Щуку. Полковник не особо рвался возвращаться в органы, его принципы и слегка устаревшие взгляды на жизнь никого, похоже, в этом мире не вдохновляют. Но именно он – честный, опытный, крутой полицейский становится главой Управления собственной безопасности Петербурга. Такой как он не может не докопаться до правды.

Страна: Россия
Студия: ООО "Прогресс-Студия" по заказу ООО «Форвард-Фильм»
Продолжительность: 16 x ~ 00:45:00
Перевод: Не требуется
Файл
Формат: AVI
Качество: HDTVRip
Видео: XviD build 73, 576x320 (16:9), 25.000 fps, ~ 710 Kbps (~ 0.153 bit/pixel)
Звук: 48.0 kHz, MP3, 2/0 ch, 128 kbps
Субтитры: нет
General
Complete name : Vnutrennee.Rassledovanie.2014.XviD.HDTVRip.by.GeneralFilmserija.01.avi
Format : AVI
Format/Info : Audio Video Interleave
File size : 279 MiB
Duration : 46mn 10s
Overall bit rate : 845 Kbps
Writing application : VirtualDubMod 1.5.10.3 | www.virtualdub-fr.org || (build 2550/release)
Writing library : VirtualDubMod build 2550/release
Video
ID : 0
Format : MPEG-4 Visual
Format profile : Advanced Simple@L5
Format settings, BVOP : 1
Format settings, QPel : No
Format settings, GMC : No warppoints
Format settings, Matrix : Custom
Codec ID : XVID
Codec ID/Hint : XviD
Duration : 46mn 10s
Bit rate : 707 Kbps
Width : 576 pixels
Height : 320 pixels
Display aspect ratio : 16:9
Frame rate : 25.000 fps
Color space : YUV
Chroma subsampling : 4:2:0
Bit depth : 8 bits
Scan type : Progressive
Compression mode : Lossy
Bits/(Pixel*Frame) : 0.153
Stream size : 233 MiB (84%)
Writing library : XviD 73
Audio
ID : 1
Format : MPEG Audio
Format version : Version 1
Format profile : Layer 3
Codec ID : 55
Codec ID/Hint : MP3
Duration : 46mn 10s
Bit rate mode : Constant
Bit rate : 128 Kbps
Channel(s) : 2 channels
Sampling rate : 48.0 KHz
Compression mode : Lossy
Stream size : 42.3 MiB (15%)
Alignment : Aligned on interleaves
Interleave, duration : 40 ms (1.00 video frame)
Interleave, preload duratio : 504 ms
Writing library : LAME3.99r
Encoding settings : -m s -V 4 -q 0 -lowpass 17 -b 128




Релиз от:



   Похожие торренты   Торрент   Размер 
В этой теме нет новых непрочитанных сообщений. Внутреннее расследование [01-16 из 16] (2014) HDTVRip от Generalfilm | КПК

3 | 0

2.98 ГБ

В этой теме нет новых непрочитанных сообщений. Внутреннее расследование [01-04 из 16] (2014) HDTVRip от Files-x

0 | 0

6.45 ГБ

В этой теме нет новых непрочитанных сообщений. Внутреннее расследование [01-04 из 16] (2014) HDTVRip от Files-x

0 | 0

4.3 ГБ

В этой теме нет новых непрочитанных сообщений. Внутреннее расследование [01-03 из 16] (2014) HDTVRip-AVC от Files-x

0 | 0

5.58 ГБ

В этой теме нет новых непрочитанных сообщений. Внутреннее расследование [01-04 из 16] (2014) HDTVRip 720p от MediaClub

0 | 0

9.5 ГБ

В этой теме нет новых непрочитанных сообщений. Внутреннее расследование [14 из 16] (2014) SATRip

122 | 15

555.39 МБ

В этой теме нет новых непрочитанных сообщений. Внутреннее расследование [13 из 16] (2014) SATRip

90 | 7

555.41 МБ




Вы не можете начинать темы
Вы не можете отвечать на сообщения
Вы не можете редактировать свои сообщения
Вы не можете удалять свои сообщения
Вы не можете добавлять вложения

Перейти:  
Для Мосгорсуда, Роскомнадзора и рекламодателей: mosgorsud-torrent[собачка]yandex.ru
 Вход
ppkBB3cker v.2 © 2008-2014 @ PPK
[ Time : 2.016s | 16 Queries | GZIP : Off ]

Торрент трекер RUTOR.IN, Не можете зайти на rutor.org? Какой новый адрес рутор? Какое зеркало рутор? Не работает rutor.org и зеркала? Тогда наш торрент специально для вас. Rutor.in неофициальное зеркало rutor. В случае если у Вас заблокирован rutor или вдруг Вы не можете на него зайти, то Вы без труда сможете скачать бесплатно и без рекламы последние новинки кино, игр, сериалов и прочего у нас, на Rutor.in. Не нужно использовать прокси, чтобы зайти на рутор, достаточно воспользоваться нашим ресурсом. Все новые фильмы, игры, сериалы, книги и музыка за 2013 и 2014 годы через торрент бесплатно. Скачивайте фильмы в хорошем качестве, игры для пк, xbox, playstation без регистрации. У нас вы найдете новые Зарубежные сериалы и Русские сериалы 2013, 2014, 2015 годов. Оставайтесь с нами, качайте любимые фильмы, игры, сериалы, книги и музыку.