img image001 image001 image001 image001 image001 image001 image001 image001 image001 image001 image001 image001 image001 image001 image001

Planets Sun Sun Sun
Статистика раздачи
Автор: PriZraK | Размер: 1.45 ГБ | Добавлен: 28 сен 2016
Раздают: 32    Качают: 6
Скачать торрент
Скачать торрент
Описание торрента

СообщениеДобавлено: 28 сен 2016 


Информация о фильме
Оригинальное название: Моя любимая свекровь
Год выпуска: 2016
Жанр: Мелодрама, комедия
Режиссер: Влад Николаев
В ролях: Евгения Дмитриева, Галина Петрова, Константин Соловьёв, Галина Польских, Марина Дюжева, Кристина Бабушкина, Лаура Кеосаян, Игорь Пазыч, Сергей Беляев, Дарья Дроздовская, Антонина Дивина, Николай Герман, Александр Бобков
О фильме:
Татьяне исполнилось 40 лет. Впереди, как ей кажется, спокойные десятилетия, полный штиль в личной жизни и чтение любимых романов. Однако судьба готовит для неё совсем другой сценарий. Любимый сын объявляет ей, что в ближайшее время она станет свекровью. Татьяна развивает бешеную деятельность, пытаясь рассорить сына с невестой – он молод, глуп, он не готов к семейной жизни! И тут происходит невероятное – Таня влюбляется сама! А будущая свекровь Татьяны совершенно не в восторге от решения сына жениться...

Страна: Россия
Студия: ТВЦ
Продолжительность: 4 x ~ 00:44:00
Перевод: Не требуется
Файл
Формат: AVI
Качество: HDTVRip
Видео: XviD build 73, 688x368 (16:9), 25.000 fps, ~ 1000 Kbps (~ 0.160 bit/pixel)
Звук: 48.0 kHz, MP3, 2/0 ch, 128 kbps
Субтитры: нет
General
Complete name : Moja.Ljubimaja.Svekrovj.2016.XviD.WEB-DLRip.by.GeneralFilm\01.serija.avi
Format : AVI
Format/Info : Audio Video Interleave
File size : 372 MiB
Duration : 44mn 44s
Overall bit rate : 1 162 Kbps
Writing application : VirtualDubMod 1.5.10.3 | www.virtualdub-fr.org || (build 2550/release)
Writing library : VirtualDubMod build 2550/release
Video
ID : 0
Format : MPEG-4 Visual
Format profile : Advanced Simple@L5
Format settings, BVOP : 1
Format settings, QPel : No
Format settings, GMC : No warppoints
Format settings, Matrix : Custom
Codec ID : XVID
Codec ID/Hint : XviD
Duration : 44mn 44s
Bit rate : 1 025 Kbps
Width : 688 pixels
Height : 368 pixels
Display aspect ratio : 1.85:1
Frame rate : 25.000 fps
Color space : YUV
Chroma subsampling : 4:2:0
Bit depth : 8 bits
Scan type : Progressive
Compression mode : Lossy
Bits/(Pixel*Frame) : 0.162
Stream size : 328 MiB (88%)
Writing library : XviD 73
Audio
ID : 1
Format : MPEG Audio
Format version : Version 1
Format profile : Layer 3
Codec ID : 55
Codec ID/Hint : MP3
Duration : 44mn 44s
Bit rate mode : Constant
Bit rate : 128 Kbps
Channel(s) : 2 channels
Sampling rate : 48.0 KHz
Compression mode : Lossy
Stream size : 41.0 MiB (11%)
Alignment : Aligned on interleaves
Interleave, duration : 40 ms (1.00 video frame)
Interleave, preload duratio : 504 ms
Writing library : LAME3.99r
Encoding settings : -m s -V 4 -q 0 -lowpass 17 -b 128




Релиз от:



   Похожие торренты   Торрент   Размер 
В этой теме нет новых непрочитанных сообщений. Моя любимая свекровь [S02] (2017) WEB-DLRip от GeneralFilm

32 | 3

1.45 ГБ

В этой теме нет новых непрочитанных сообщений. Моя любимая свекровь [01-04 из 04] (2016) WEB-DLRip-AVC от Files-x

133 | 68

2.38 ГБ

В этой теме нет новых непрочитанных сообщений. Моя любимая свекровь [01-04 из 04] (2016) WEB-DLRip от Files-x

550 | 535

2.34 ГБ

В этой теме нет новых непрочитанных сообщений. Моя любимая свекровь [02х01 из 04] (2017) WEB-DLRip-AVC от Files-x

6 | 6

2.23 ГБ

В этой теме нет новых непрочитанных сообщений. Моя любимая свекровь [02х01-02 из 04] (2017) WEB-DLRip от Files-x

27 | 10

2.15 ГБ

В этой теме нет новых непрочитанных сообщений. Моя любимая свекровь [01-04 из 04] (2016) DVB от Files-x

9 | 1

3.66 ГБ

В этой теме нет новых непрочитанных сообщений. Моя любимая свекровь [01-04 из 04] (2016) WEB-DL 1080p от Files-x

176 | 108

4.08 ГБ




Вы не можете начинать темы
Вы не можете отвечать на сообщения
Вы не можете редактировать свои сообщения
Вы не можете удалять свои сообщения
Вы не можете добавлять вложения

Перейти:  
Для Мосгорсуда, Роскомнадзора и рекламодателей: mosgorsud-torrent[собачка]yandex.ru
 Вход
ppkBB3cker v.2 © 2008-2014 @ PPK
[ Time : 0.048s | 16 Queries | GZIP : Off ]

cron