img image001 image001 image001 image001 image001 image001 image001 image001 image001 image001 image001 image001 image001 image001 image001

Planets Sun Sun Sun
Статистика раздачи
Автор: PriZraK | Размер: 2.98 ГБ | Добавлен: 28 сен 2016
Раздают: 33    Качают: 11
Скачать торрент
Скачать торрент
Описание торрента

СообщениеДобавлено: 28 сен 2016 


Последний настоящий мужчина / Last Man Standing
Страна: США
Производство: 20th Century Fox Television, 21 Laps Entertainment, Double Wide Productions, Lost Marbles Productions
Год выпуска: 2015-2016
Сезон: 5
Жанр: комедия
Продолжительность: х ~00:22:00
Режиссеры: Джон Пасквин, Виктор Гонзалез, Тед Уасс
Авторы сценария: Джек Бёрдитт, Джон Хэллер, Ричард Брэндон Манус
В ролях: Тим Аллен, Нэнси Трэвис, Молли Эфраим, Кейтлин Дивер, Гектор Элизондо, Кристоф Сандерс, Аманда Фуллер, Флинн Моррисон
Описание: Сегодняшний мир принадлежит женщинам, а этот мужчина задался целью вернуть остальным мужчинам достойное место в обществе.
Мужчины создавали цивилизации, изобрели локомотив и спортивный канал ESPN, но им приходится выяснить, что мир им больше не принадлежит. Быть мужественнее чем Майк Бакстер невозможно. Он маркетинговый директор легендарного спортивного магазина, обожает приключения во время командировок, и, конечно же, водит пикап. Хотя на работе Майк круче всех, дома он под каблуком у женщин: у своей жены Ванессы, и у трёх дочерей — 22-летней Кристин, 17-летней Мэнди и 14-летней Ив...

Перевод: Профессиональный (полное дублирование) | Paramount Comedy
Субтитры: нет

Качество: WEB-DLRip
Формат: AVI
Видео кодек: XviD
Аудио кодек: МР3
Видео: 720x400 (16:9), 25.000 fps, XviD build 64 ~1 341 kbps avg
Аудио №1: 48.0 kHz, MPEG Layer 3, 2 ch, ~128 kbps | RUS
Аудио №2: 48.0 kHz, MPEG Layer 3, 2 ch, ~128 kbps | ENG
Дата премьеры (мир): 25 сентября 2015
Релиз от: TaLi4
General
Complete name : last_man_standing.s05e01.web-dl.rus(paramount.comedy).avi
Format : AVI
Format/Info : Audio Video Interleave
File size : 235 MiB
Duration : 20mn 20s
Overall bit rate : 1 611 Kbps
Writing application : VirtualDubMod 1.5.10.3 | (build 2550/release)
Writing library : VirtualDubMod build 2550/release
Video
ID : 0
Format : MPEG-4 Visual
Format profile : Advanced Simple@L5
Format settings, BVOP : 2
Format settings, QPel : No
Format settings, GMC : No warppoints
Format settings, Matrix : Default (H.263)
Codec ID : XVID
Codec ID/Hint : XviD
Duration : 20mn 20s
Bit rate : 1 341 Kbps
Width : 720 pixels
Height : 400 pixels
Display aspect ratio : 16:9
Frame rate : 25.000 fps
Color space : YUV
Chroma subsampling : 4:2:0
Bit depth : 8 bits
Scan type : Progressive
Compression mode : Lossy
Bits/(Pixel*Frame) : 0.186
Stream size : 195 MiB (83%)
Writing library : XviD 64
Audio #1
ID : 1
Format : MPEG Audio
Format version : Version 1
Format profile : Layer 3
Mode : Joint stereo
Mode extension : MS Stereo
Codec ID : 55
Codec ID/Hint : MP3
Duration : 20mn 20s
Bit rate mode : Constant
Bit rate : 128 Kbps
Channel(s) : 2 channels
Sampling rate : 48.0 KHz
Compression mode : Lossy
Stream size : 18.6 MiB (8%)
Alignment : Aligned on interleaves
Interleave, duration : 40 ms (1.00 video frame)
Interleave, preload duratio : 504 ms
Audio #2
ID : 2
Format : MPEG Audio
Format version : Version 1
Format profile : Layer 3
Mode : Joint stereo
Mode extension : MS Stereo
Codec ID : 55
Codec ID/Hint : MP3
Duration : 20mn 20s
Bit rate mode : Constant
Bit rate : 128 Kbps
Channel(s) : 2 channels
Sampling rate : 48.0 KHz
Compression mode : Lossy
Stream size : 18.6 MiB (8%)
Alignment : Aligned on interleaves
Interleave, duration : 40 ms (1.00 video frame)
Interleave, preload duratio : 504 ms
Writing library : LAME3.99r
Encoding settings : -m j -V 4 -q 0 -lowpass 17 -b 128




   Похожие торренты   Торрент   Размер 
В этой теме нет новых непрочитанных сообщений. Последний настоящий мужчина / Last Man Standing [05х01-13 из 22] (2015-2016) WEB-DLRip 720p | Paramount Comedy

28 | 12

9.04 ГБ

В этой теме нет новых непрочитанных сообщений. Последний настоящий мужчина / Last Man Standing [S04] (2014-2015) WEB-DLRip | Paramount Comedy

44 | 20

5.06 ГБ

В этой теме нет новых непрочитанных сообщений. Последний настоящий мужчина / Last Man Standing [S04] (2014-2015) WEB-DLRip 720p | Paramount Comedy

17 | 4

15.48 ГБ

В этой теме нет новых непрочитанных сообщений. Последний настоящий мужчина / Last Man Standing [S02] (2012) WEB-DLRip | D | Paramount Comedy

33 | 27

3.74 ГБ

В этой теме нет новых непрочитанных сообщений. Последний настоящий мужчина / Last Man Standing [S01] (2011) WEB-DLRip | D | Paramount Comedy

53 | 150

5 ГБ

В этой теме нет новых непрочитанных сообщений. Последний настоящий мужчина / Last Man Standing [02x01-16] (2012) WEB-DLRip | D | Paramount Comedy

0 | 2

3.33 ГБ

В этой теме нет новых непрочитанных сообщений. Последний настоящий мужчина / Last Man Standing [S03] (2013-2014) WEB-DLRip | Paramount Comedy

49 | 16

5.06 ГБ




Вы не можете начинать темы
Вы не можете отвечать на сообщения
Вы не можете редактировать свои сообщения
Вы не можете удалять свои сообщения
Вы не можете добавлять вложения

Перейти:  
Для Мосгорсуда, Роскомнадзора и рекламодателей: mosgorsud-torrent[собачка]yandex.ru
 Вход
ppkBB3cker v.2 © 2008-2014 @ PPK
[ Time : 0.052s | 18 Queries | GZIP : Off ]

Торрент трекер RUTOR.IN, Не можете зайти на rutor.org? Какой новый адрес рутор? Какое зеркало рутор? Не работает rutor.org и зеркала? Тогда наш торрент специально для вас. Rutor.in неофициальное зеркало rutor. В случае если у Вас заблокирован rutor или вдруг Вы не можете на него зайти, то Вы без труда сможете скачать бесплатно и без рекламы последние новинки кино, игр, сериалов и прочего у нас, на Rutor.in. Не нужно использовать прокси, чтобы зайти на рутор, достаточно воспользоваться нашим ресурсом. Все новые фильмы, игры, сериалы, книги и музыка за 2013 и 2014 годы через торрент бесплатно. Скачивайте фильмы в хорошем качестве, игры для пк, xbox, playstation без регистрации. У нас вы найдете новые Зарубежные сериалы и Русские сериалы 2013, 2014, 2015 годов. Оставайтесь с нами, качайте любимые фильмы, игры, сериалы, книги и музыку.
cron