img image001 image001 image001 image001 image001 image001 image001 image001 image001 image001 image001 image001 image001 image001 image001

Planets Sun Sun Sun
Статистика раздачи
Автор: PriZraK | Размер: 15.53 ГБ | Добавлен: 28 сен 2016
Раздают: 20    Качают: 9
Скачать торрент
Скачать торрент
Описание торрента

СообщениеДобавлено: 28 сен 2016 


Последний настоящий мужчина / Last Man Standing
Страна: США
Производство: 20th Century Fox Television, 21 Laps Entertainment, Double Wide Productions, Lost Marbles Productions
Год выпуска: 2013-2014
Сезон: 3
Жанр: комедия
Продолжительность: 22х ~00:22:00
Режиссеры: Джон Пасквин, Виктор Гонзалез, Тед Уасс
Авторы сценария: Джек Бёрдитт, Джон Хэллер, Ричард Брэндон Манус
В ролях: Тим Аллен, Нэнси Трэвис, Молли Эфраим, Кейтлин Дивер, Гектор Элизондо, Кристоф Сандерс, Аманда Фуллер, Флинн Моррисон
Описание: Сегодняшний мир принадлежит женщинам, а этот мужчина задался целью вернуть остальным мужчинам достойное место в обществе.
Мужчины создавали цивилизации, изобрели локомотив и спортивный канал ESPN, но им приходится выяснить, что мир им больше не принадлежит. Быть мужественнее чем Майк Бакстер невозможно. Он маркетинговый директор легендарного спортивного магазина, обожает приключения во время командировок, и, конечно же, водит пикап. Хотя на работе Майк круче всех, дома он под каблуком у женщин: у своей жены Ванессы, и у трёх дочерей — 22-летней Кристин, 17-летней Мэнди и 14-летней Ив...

Перевод: Профессиональный (полное дублирование) | Paramount Comedy
Субтитры: нет

Качество: WEB-DLRip 720p
Формат: МКV
Видео кодек: AVC
Аудио кодек: АС3
Видео: 1280x718 (16:9), 23.976 fps, MPEG-4 AVC ~3 905 kbps avg
Аудио №1: 48.0 kHz, AC3 Dolby Digital, 2/0 (L,R) ch, ~192 kbps | RUS / Paramount Comedy
Аудио №2: 48.0 kHz, AC3 Dolby Digital, 3/2 (L,C,R,l,r) + LFE ch, ~384 kbps | ENG
Дата премьеры (мир): 20 сентября 2013
Релиз от: TaLi4
General
Unique ID : 251724912929988965059658813544807163000 (0xBD60746AE3DDD41D9174FB50B89E6478)
Complete name : Last.Man.Standing.2011.S03E01.720p.WEB.DL.Paramount.Comedy.mkv
Format : Matroska
Format version : Version 4 / Version 2
File size : 709 MiB
Duration : 21mn 41s
Overall bit rate : 4 572 Kbps
Encoded date : UTC 2014-07-13 17:15:10
Writing application : mkvmerge v6.6.0 ('The Edge Of The In Between') built on Dec 1 2013 17:55:00
Writing library : libebml v1.3.0 + libmatroska v1.4.1
Video
ID : 1
Format : AVC
Format/Info : Advanced Video Codec
Format profile : High@L3.1
Format settings, CABAC : No
Format settings, ReFrames : 2 frames
Codec ID : V_MPEG4/ISO/AVC
Duration : 21mn 41s
Bit rate : 3 905 Kbps
Width : 1 280 pixels
Height : 718 pixels
Display aspect ratio : 16:9
Frame rate mode : Constant
Frame rate : 23.976 fps
Color space : YUV
Chroma subsampling : 4:2:0
Bit depth : 8 bits
Scan type : Progressive
Bits/(Pixel*Frame) : 0.177
Stream size : 606 MiB (85%)
Language : English
Default : Yes
Forced : No
Color primaries : BT.709
Transfer characteristics : BT.709
Matrix coefficients : BT.709
Audio #1
ID : 2
Format : AC-3
Format/Info : Audio Coding 3
Mode extension : CM (complete main)
Format settings, Endianness : Big
Codec ID : A_AC3
Duration : 21mn 41s
Bit rate mode : Constant
Bit rate : 192 Kbps
Channel(s) : 2 channels
Channel positions : Front: L R
Sampling rate : 48.0 KHz
Bit depth : 16 bits
Compression mode : Lossy
Stream size : 29.8 MiB (4%)
Language : Russian
Default : Yes
Forced : No
Audio #2
ID : 3
Format : AC-3
Format/Info : Audio Coding 3
Mode extension : CM (complete main)
Format settings, Endianness : Big
Codec ID : A_AC3
Duration : 21mn 41s
Bit rate mode : Constant
Bit rate : 384 Kbps
Channel(s) : 6 channels
Channel positions : Front: L C R, Side: L R, LFE
Sampling rate : 48.0 KHz
Bit depth : 16 bits
Compression mode : Lossy
Stream size : 59.6 MiB (8%)
Language : English
Default : No
Forced : No




   Похожие торренты   Торрент   Размер 
В этой теме нет новых непрочитанных сообщений. Последний настоящий мужчина / Last Man Standing [S03] (2013-2014) WEB-DLRip | Paramount Comedy

49 | 16

5.06 ГБ

В этой теме нет новых непрочитанных сообщений. Последний настоящий мужчина / Last Man Standing [S02] (2012-2013) WEB-DLRip 720p | Paramount Comedy

28 | 8

12.68 ГБ

В этой теме нет новых непрочитанных сообщений. Последний настоящий мужчина / Last Man Standing [S04] (2014-2015) WEB-DLRip 720p | Paramount Comedy

17 | 4

15.48 ГБ

В этой теме нет новых непрочитанных сообщений. Последний настоящий мужчина / Last Man Standing [S04] (2014-2015) WEB-DLRip | Paramount Comedy

44 | 20

5.06 ГБ

В этой теме нет новых непрочитанных сообщений. Последний настоящий мужчина / Last Man Standing [S01] (2011-2012) WEB-DLRip 720p | Paramount Comedy

48 | 30

16.87 ГБ

В этой теме нет новых непрочитанных сообщений. Последний настоящий мужчина / Last Man Standing [05х01-13 из 22] (2015-2016) WEB-DLRip 720p | Paramount Comedy

28 | 12

9.04 ГБ

В этой теме нет новых непрочитанных сообщений. Последний настоящий мужчина / Last Man Standing [S02] (2012) WEB-DLRip | D | Paramount Comedy

33 | 27

3.74 ГБ




Вы не можете начинать темы
Вы не можете отвечать на сообщения
Вы не можете редактировать свои сообщения
Вы не можете удалять свои сообщения
Вы не можете добавлять вложения

Перейти:  
Для Мосгорсуда, Роскомнадзора и рекламодателей: mosgorsud-torrent[собачка]yandex.ru
 Вход
ppkBB3cker v.2 © 2008-2014 @ PPK
[ Time : 0.025s | 15 Queries | GZIP : Off ]

Торрент трекер RUTOR.IN, Не можете зайти на rutor.org? Какой новый адрес рутор? Какое зеркало рутор? Не работает rutor.org и зеркала? Тогда наш торрент специально для вас. Rutor.in неофициальное зеркало rutor. В случае если у Вас заблокирован rutor или вдруг Вы не можете на него зайти, то Вы без труда сможете скачать бесплатно и без рекламы последние новинки кино, игр, сериалов и прочего у нас, на Rutor.in. Не нужно использовать прокси, чтобы зайти на рутор, достаточно воспользоваться нашим ресурсом. Все новые фильмы, игры, сериалы, книги и музыка за 2013 и 2014 годы через торрент бесплатно. Скачивайте фильмы в хорошем качестве, игры для пк, xbox, playstation без регистрации. У нас вы найдете новые Зарубежные сериалы и Русские сериалы 2013, 2014, 2015 годов. Оставайтесь с нами, качайте любимые фильмы, игры, сериалы, книги и музыку.