img image001 image001 image001 image001 image001 image001 image001 image001 image001 image001 image001 image001 image001 image001 image001

Planets Sun Sun Sun
Статистика раздачи
Автор: PriZraK | Размер: 6.66 ГБ | Добавлен: 29 сен 2016
Раздают: 100    Качают: 49
Скачать торрент
Скачать торрент
Описание торрента

СообщениеДобавлено: 29 сен 2016 


Информация о фильме
Название: Твин Пикс
Оригинальное название: Twin Peaks
Год выхода: 1990
Жанр: Триллер, драма, криминал, детектив
Режиссер: Дэвид Линч, Дайан Китон, Джонатан Сэнгер
В ролях: Кайл МакЛахлан, Майкл Онткин, Шерил Ли, Лара Флинн Бойл, Шерилин Фенн, Рэй Уайз, Мигель Феррер, Дэвид Линч, Билли Зейн, Хезер Грэм, Мэдчен Эмик, Дэна Эшбрук, Ричард Беймер, Уоррен Фрост, Пегги Липтон, Джеймс Маршалл, Эверет МакГилл, Джек Нэнс, Джоан Чен, Кимми Робертсон, Майкл Хорс, Пайпер Лори, Гарри Гоаз, Эрик ДаРе, Уэнди Роби, Расс Тэмблин, Дон С. Дэвис, Крис Малки, Гаррисон Хершбергер, Грэйс Забриски, Катрин Э. Колсон, Йен Бьюкэнэн, Мэри Джо Дешанель, Фрэнк Силва, Кеннет Уэлш, Аль Штробель, Дэвид Патрик Келли, Джон Бойлэн, Виктория Кэтлин
О фильме:
Основная сюжетная линия фильма - история расследования специальным агентом ФБР Дейлом Купером загадочного убийства юной школьницы Лоры Палмер, которая, казалось бы, была примерна во всех отношениях. Позднее откроется, что между видимым и реальным была невероятная пропасть. История начинается с известия о находке обнаженного тела, завернутого в полиэтилен и выброшенного волнами на берег озера. В ходе расследования перед внимательными взглядами агента Купера, шерифа Трумена и его помощников проходят разные жители Твин Пикс. Постепенно зритель открывает для себя поражающее многообразие сторон жизни этого, на первый взгляд, тихого и мирного городка: от драматической романтики до леденящего, мистического ужаса. Режиссер картины, Дэвид Линч, позднее скажет в одном из интервью: «Твин Пикс - везде. Это не место. Это состояние".

Первый сезон:
01. Происшествие на северо-западе (Пилотная серия) / Northwest Passage (Pilot)
02. Следы в никуда / Traces to Nowhere
03. Дзен, или Умение поймать убийцу / Zen, or the Skill to Catch a Killer
04. Покойся с болью / Rest in Pain
05. Однорукий / The One-Armed Man
06. Сны Купера / Cooper's Dreams
07. Время осмысления / Realization Time
08. Последний вечер / The Last Evening
Второй сезон:
01. Да пребудет с тобой Великан / May the Giant Be with You
02. Кома / Coma
03. Человек за стеклом / The Man Behind Glass
04. Тайный дневник Лоры / Laura's Secret Diary
05. Проклятие Орхидеи / The Orchid's Curse
06. Демоны / Demons
07. Одинокие души / Lonely Souls
08. Поездка с мёртвой девушкой / Drive with a Dead Girl
09. Самосуд / Arbitrary Law
10. Спор между братьями / Dispute Between Brothers
11. Бал-маскарад / Masked Ball
12. Чёрная вдова / The Black Widow
13. Шах и мат / Checkmate
14. Двойная игра / Double Play
15. Рабы и хозяева / Slaves and Masters
16. Обречённая / The Condemned Woman
17. Раны и шрамы / Wounds and Scars
18. На крыльях любви / On the Wings of Love
19. Вариации в отношениях / Variations on Relations
20. Тропа в Чёрный Вигвам / The Path to the Black Lodge
21. Мисс Твин Пикс / Miss Twin Peaks
22. Между жизнью и смертью / Beyond Life and Death

Страна: США
Студия: Lynch Frost Productions, Propaganda Films, Spelling Entertainment, Twin Peaks Productions Inc.
Продолжительность: 2 ~ 01:30:00, 28 x 00:47:00
Перевод: Профессиональный (многоголосый, закадровый) [ОРТ]
Файл
Формат: MP4
Качество: WEB-DLRip | КПК
Видео: MPEG-4 AVC (x264), 640x480, ~500 kbps, 23.976 fps
Аудио: AAC LC, 48.0 KHz, 2 ch, 128 Kbps
Субтитры: Нет
Семпл

Complete name : E:KinoTvin.Piks.AVC.WEB-DLRip.KPK.ORT.GFTvin.Piks.S01.1990.AVC.WEB-DLRip.KPK.ORT.GFTvin.Piks.s01e06.1990.AVC.WEB-DLRip.KPK.ORT.GF.mp4
Format : MPEG-4
Codec ID : M4V (isom/iso2/avc1)
File size : 211 MiB
Duration : 46mn 29s
Overall bit rate mode : Variable
Overall bit rate : 633 Kbps
Writing application : Lavf53.19.0
Video
ID : 1
Format : AVC
Format/Info : Advanced Video Codec
Format profile : High@L4.1
Format settings, CABAC : Yes
Format settings, ReFrames : 8 frames
Codec ID : avc1
Codec ID/Info : Advanced Video Coding
Duration : 46mn 29s
Source duration : 17mn 51s
Bit rate : 500 Kbps
Width : 640 pixels
Height : 480 pixels
Display aspect ratio : 4:3
Frame rate mode : Constant
Frame rate : 23.976 fps
Color space : YUV
Chroma subsampling : 4:2:0
Bit depth : 8 bits
Scan type : Progressive
Bits/(Pixel*Frame) : 0.068
Stream size : 166 MiB (79%)
Source stream size : 166 MiB (79%)
Writing library : x264 core 146 r2538 121396c
Encoding settings : cabac=1 / ref=8 / deblock=1:-2:-2 / analyse=0x3:0x133 / me=umh / subme=10 / psy=1 / psy_rd=1.00:0.00 / mixed_ref=1 / me_range=24 / chroma_me=1 / trellis=2 / 8x8dct=1 / cqm=0 / deadzone=21,11 / fast_pskip=1 / chroma_qp_offset=-2 / threads=12 / lookahead_threads=2 / sliced_threads=0 / nr=0 / decimate=0 / interlaced=0 / bluray_compat=0 / constrained_intra=0 / bframes=8 / b_pyramid=2 / b_adapt=2 / b_bias=0 / direct=3 / weightb=1 / open_gop=0 / weightp=2 / keyint=240 / keyint_min=121 / scenecut=40 / intra_refresh=0 / rc_lookahead=40 / rc=2pass / mbtree=1 / bitrate=500 / ratetol=1.0 / qcomp=0.60 / qpmin=0 / qpmax=69 / qpstep=4 / cplxblur=20.0 / qblur=0.5 / ip_ratio=1.40 / aq=1:1.00
Menus : 3
mdhd_Duration : 2789124
Audio
ID : 2
Format : AAC
Format/Info : Advanced Audio Codec
Format profile : LC
Codec ID : 40
Duration : 46mn 29s
Bit rate mode : Variable
Bit rate : 128 Kbps
Channel(s) : 2 channels
Channel positions : Front: L R
Sampling rate : 48.0 KHz
Frame rate : 46.875 fps (1024 spf)
Compression mode : Lossy
Stream size : 42.4 MiB (20%)
Default : Yes
Alternate group : 1
Menus : 3

Релиз от:



   Похожие торренты   Торрент   Размер 
В этой теме нет новых непрочитанных сообщений. Твин Пикс / Twin Peaks [S01-02] (1990-1991) WEB-DLRip | P1

192 | 106

23.25 ГБ

В этой теме нет новых непрочитанных сообщений. Твин Пикс / Twin Peaks [S02] (1990-1991) BDRip-AVC | iPad

49 | 15

23.28 ГБ

В этой теме нет новых непрочитанных сообщений. Твин Пикс / Twin Peaks [S02] (1990-1991) BDRip от HQ-ViDEO

341 | 228

20.12 ГБ

В этой теме нет новых непрочитанных сообщений. Твин Пикс / Twin Peaks [S02] (1990-1991) HDRip от MediaClub | P, A

63 | 47

25.71 ГБ

В этой теме нет новых непрочитанных сообщений. Твин Пикс / Twin Peaks [02x01-02 из 22] (1990-1991) HDRip от MediaClub | P, A

9 | 28

3.36 ГБ

В этой теме нет новых непрочитанных сообщений. Твин Пикс / Twin Peaks [S02] (1991) BDRemux | A

0 | 9

246.56 ГБ

В этой теме нет новых непрочитанных сообщений. Твин Пикс / Twin Peaks [S01] (1990) BDRip

94 | 114

7.38 ГБ




Вы не можете начинать темы
Вы не можете отвечать на сообщения
Вы не можете редактировать свои сообщения
Вы не можете удалять свои сообщения
Вы не можете добавлять вложения

Перейти:  
Для Мосгорсуда, Роскомнадзора и рекламодателей: mosgorsud-torrent[собачка]yandex.ru
 Вход
ppkBB3cker v.2 © 2008-2014 @ PPK
[ Time : 1.811s | 15 Queries | GZIP : Off ]

Торрент трекер RUTOR.IN, Не можете зайти на rutor.org? Какой новый адрес рутор? Какое зеркало рутор? Не работает rutor.org и зеркала? Тогда наш торрент специально для вас. Rutor.in неофициальное зеркало rutor. В случае если у Вас заблокирован rutor или вдруг Вы не можете на него зайти, то Вы без труда сможете скачать бесплатно и без рекламы последние новинки кино, игр, сериалов и прочего у нас, на Rutor.in. Не нужно использовать прокси, чтобы зайти на рутор, достаточно воспользоваться нашим ресурсом. Все новые фильмы, игры, сериалы, книги и музыка за 2013 и 2014 годы через торрент бесплатно. Скачивайте фильмы в хорошем качестве, игры для пк, xbox, playstation без регистрации. У нас вы найдете новые Зарубежные сериалы и Русские сериалы 2013, 2014, 2015 годов. Оставайтесь с нами, качайте любимые фильмы, игры, сериалы, книги и музыку.