img image001 image001 image001 image001 image001 image001 image001 image001 image001 image001 image001 image001 image001 image001 image001

Planets Sun Sun Sun
Статистика раздачи
Автор: PriZraK | Размер: 2.9 ГБ | Добавлен: 03 окт 2016
Раздают: 60    Качают: 45
Скачать торрент
Скачать торрент
Описание торрента

СообщениеДобавлено: 03 окт 2016 


Информация о фильме
Оригинальное название: Тонкий лёд / Из-за любви / Любовь в 3-D
Год выпуска: 2015
Жанр: Семейная драма
Режиссер: Александр Франскевич-Лайе
В ролях: Алексей Гуськов, Екатерина Гусева, Егор Бероев, Андрей Руденский, Ян Цапник, Виктория Маслова, Наталья Рудова, Александр Пашков, Лидия Вележева, Игорь Угольников, Светлана Норбаева, Владимир Гостюхин, Елена Пастревич, Владимир Мищанчук, Кирилл Комаров, Андрей Лукьянов, Светлана Никифорова, Ольга Бранкевич, Анна Маланкина, Олеся Грибок
О фильме:
Порядок жизни в этой семье долгие годы диктовался волей Игоря Палагина, мужа и отца, успешного строительного магната с авторитарным стилем мышления. Но он и представить не мог, что случайная встреча его молодой жены, матери двоих детей Ирины с бизнесменом и автогонщиком Андреем Гаврюшовым зайдет настолько далеко. В деловой среде не место семейным скандалам! Но на что способен каждый из них в диаметрально противоположном стремлении — обрести личное счастье и сохранить семью?

Страна: Украина
Студия: Первый канал, Студия «Бонанза», «ПРО-СИНЕМА Продакшн»
Продолжительность: 8 x ~ 00:52:00
Перевод: Не требуется
Файл
Формат: AVI
Качество: HDTVRip
Видео: XviD build 73, 624x352 (16:9), 25.000 fps, ~ 880 Kbps (~ 0.160 bit/pixel)
Звук: 48.0 kHz, MP3, 2/0 ch, 128 kbps
Субтитры: нет
General
Complete name : Tonkij.Led.2015.XviD.HDTVRip.by.GeneralFilmSerija.01.avi
Format : AVI
Format/Info : Audio Video Interleave
File size : 371 MiB
Duration : 51mn 9s
Overall bit rate : 1 015 Kbps
Writing application : VirtualDubMod 1.5.10.3 | www.virtualdub-fr.org || (build 2550/release)
Writing library : VirtualDubMod build 2550/release
Video
ID : 0
Format : MPEG-4 Visual
Format profile : Advanced Simple@L5
Format settings, BVOP : 1
Format settings, QPel : No
Format settings, GMC : No warppoints
Format settings, Matrix : Custom
Codec ID : XVID
Codec ID/Hint : XviD
Duration : 51mn 9s
Bit rate : 877 Kbps
Width : 624 pixels
Height : 352 pixels
Display aspect ratio : 16:9
Frame rate : 25.000 fps
Color space : YUV
Chroma subsampling : 4:2:0
Bit depth : 8 bits
Scan type : Progressive
Compression mode : Lossy
Bits/(Pixel*Frame) : 0.160
Stream size : 321 MiB (86%)
Writing library : XviD 73
Audio
ID : 1
Format : MPEG Audio
Format version : Version 1
Format profile : Layer 3
Codec ID : 55
Codec ID/Hint : MP3
Duration : 51mn 9s
Bit rate mode : Constant
Bit rate : 128 Kbps
Channel(s) : 2 channels
Sampling rate : 48.0 KHz
Compression mode : Lossy
Stream size : 46.8 MiB (13%)
Alignment : Aligned on interleaves
Interleave, duration : 40 ms (1.00 video frame)
Interleave, preload duratio : 504 ms
Writing library : LAME3.99r
Encoding settings : -m s -V 4 -q 0 -lowpass 17 -b 128





Релиз от:
Огромная благодарность ValkiriaGF за созданный постер к раздаче



   Похожие торренты   Торрент   Размер 
В этой теме нет новых непрочитанных сообщений. Тонкий лёд / Из-за любви / Любовь в 3-D [01-02 из 12] HDTVRip от GeneralFilm

80 | 36

4.34 ГБ

В этой теме нет новых непрочитанных сообщений. Тонкий лёд / Из-за любви / Любовь в 3-D [01-02 из 12] HDTVRip от GeneralFilm

126 | 36

2.89 ГБ

В этой теме нет новых непрочитанных сообщений. Тонкий лёд / Из-за любви / Любовь в 3-D [01 из 12] HDTVRip 720p от GeneralFilm

31 | 7

2.64 ГБ

В этой теме нет новых непрочитанных сообщений. Тонкий лёд / Из-за любви / Любовь в 3-D [01 из 12] HDTVRip 720p от GeneralFilm

90 | 54

5.33 ГБ

В этой теме нет новых непрочитанных сообщений. Тонкий лёд / Из-за любви / Любовь в 3-D [01 из 12] (2015) WEB-DLRip от GeneralFilm

90 | 4

372.82 МБ

В этой теме нет новых непрочитанных сообщений. Тонкий лёд / Из-за любви / Любовь в 3-D [01-02 из 12] HDTV 1080i от GeneralFilm

4 | 3

16.36 ГБ

В этой теме нет новых непрочитанных сообщений. Тонкий лёд / Из-за любви / Любовь в 3-D [01-02 из 12] HDTV 1080i от GeneralFilm

15 | 7

10.75 ГБ




Вы не можете начинать темы
Вы не можете отвечать на сообщения
Вы не можете редактировать свои сообщения
Вы не можете удалять свои сообщения
Вы не можете добавлять вложения

Перейти:  
Для Мосгорсуда, Роскомнадзора и рекламодателей: mosgorsud-torrent[собачка]yandex.ru
 Вход
ppkBB3cker v.2 © 2008-2014 @ PPK
[ Time : 0.043s | 14 Queries | GZIP : Off ]

Торрент трекер RUTOR.IN, Не можете зайти на rutor.org? Какой новый адрес рутор? Какое зеркало рутор? Не работает rutor.org и зеркала? Тогда наш торрент специально для вас. Rutor.in неофициальное зеркало rutor. В случае если у Вас заблокирован rutor или вдруг Вы не можете на него зайти, то Вы без труда сможете скачать бесплатно и без рекламы последние новинки кино, игр, сериалов и прочего у нас, на Rutor.in. Не нужно использовать прокси, чтобы зайти на рутор, достаточно воспользоваться нашим ресурсом. Все новые фильмы, игры, сериалы, книги и музыка за 2013 и 2014 годы через торрент бесплатно. Скачивайте фильмы в хорошем качестве, игры для пк, xbox, playstation без регистрации. У нас вы найдете новые Зарубежные сериалы и Русские сериалы 2013, 2014, 2015 годов. Оставайтесь с нами, качайте любимые фильмы, игры, сериалы, книги и музыку.