img image001 image001 image001 image001 image001 image001 image001 image001 image001 image001 image001 image001 image001 image001 image001

Planets Sun Sun Sun
Статистика раздачи
Автор: PriZraK | Размер: 1.45 ГБ | Добавлен: 04 окт 2016
Раздают: 2    Качают: 0
Скачать торрент
Скачать торрент
Описание торрента

СообщениеДобавлено: 04 окт 2016 


Информация о фильме
Оригинальное название: Перчатка Авроры
Год выпуска: 2016
Жанр: Детектив, мелодрама
Режиссер: Игорь Драка
В ролях: Елена Вожакина, Артем Карасев, Степан Бекетов, Сергей Кошонин, Анастасия Тюнина, Елена Радевич, Галина Бокашевская
О фильме:
Аврора, дочь богатых родителей и мать девочек-близняшек, постоянно попадает в разные истории. Она собирается замуж за учёного-историка Павла. Незадолго до свадьбы она получает в подарок старинную шкатулку с надписью "Аврора", какими-то письмами на финском и одной дамской перчаткой внутри. С помощью Павла героиня выясняет, что шкатулка и письма принадлежали знаменитой красавице пушкинских времён Авроре Шернваль, над которой, по слухам, тяготело проклятие: все любимые ею мужчины, включая отца и сына, безвременно скончались.

Страна: Россия
Студия: ГК «Приор»
Продолжительность: 4 x ~ 00:44:00
Перевод: Не требуется
Файл
Формат: AVI
Качество: HDTVRip
Видео: XviD build 73, 688x384 (16:9), 25.000 fps, ~ 1010 Kbps (~ 0.152 bit/pixel)
Звук: 48.0 kHz, MP3, 2/0 ch, 128 kbps
Субтитры: нет
General
Complete name : Perchatka.Avrory.2016.XviD.WEB-DLRip.by.GeneralFilmSerija.01.avi
Format : AVI
Format/Info : Audio Video Interleave
File size : 372 MiB
Duration : 45mn 23s
Overall bit rate : 1 145 Kbps
Writing application : VirtualDubMod 1.5.10.3 | www.virtualdub-fr.org || (build 2550/release)
Writing library : VirtualDubMod build 2550/release
Video
ID : 0
Format : MPEG-4 Visual
Format profile : Advanced Simple@L5
Format settings, BVOP : 1
Format settings, QPel : No
Format settings, GMC : No warppoints
Format settings, Matrix : Custom
Codec ID : XVID
Codec ID/Hint : XviD
Duration : 45mn 23s
Bit rate : 1 007 Kbps
Width : 688 pixels
Height : 384 pixels
Display aspect ratio : 16:9
Frame rate : 25.000 fps
Color space : YUV
Chroma subsampling : 4:2:0
Bit depth : 8 bits
Scan type : Progressive
Compression mode : Lossy
Bits/(Pixel*Frame) : 0.152
Stream size : 327 MiB (88%)
Writing library : XviD 73
Audio
ID : 1
Format : MPEG Audio
Format version : Version 1
Format profile : Layer 3
Codec ID : 55
Codec ID/Hint : MP3
Duration : 45mn 23s
Bit rate mode : Constant
Bit rate : 128 Kbps
Channel(s) : 2 channels
Sampling rate : 48.0 KHz
Compression mode : Lossy
Stream size : 41.6 MiB (11%)
Alignment : Aligned on interleaves
Interleave, duration : 40 ms (1.00 video frame)
Interleave, preload duratio : 504 ms
Writing library : LAME3.99r
Encoding settings : -m s -V 4 -q 0 -lowpass 17 -b 128





Релиз от:



   Похожие торренты   Торрент   Размер 
В этой теме нет новых непрочитанных сообщений. Перчатка Авроры [01-04 из 04] (2016) WEB-DLRip-AVC от Files-x

2 | 0

2.27 ГБ

В этой теме нет новых непрочитанных сообщений. Перчатка Авроры [01-04 из 04] (2016) WEB-DLRip от Files-x

1 | 0

2.14 ГБ

В этой теме нет новых непрочитанных сообщений. Перчатка Авроры [01-04 из 04] (2016) DVB от Files-x

0 | 0

3.47 ГБ

В этой теме нет новых непрочитанных сообщений. Перчатка Авроры [01 из 04] (2016) SATRip-AVC от Files-x

0 | 0

472.89 МБ

В этой теме нет новых непрочитанных сообщений. Перчатка Авроры [01-04 из 04] (2016) SATRip от Files-x

21 | 0

2.15 ГБ

В этой теме нет новых непрочитанных сообщений. Перчатка Авроры [01-04 из 04] (2016) WEB-DL 1080p от MediaClub

0 | 0

6.67 ГБ

В этой теме нет новых непрочитанных сообщений. Перчатка Авроры [01 из 04] (2016) SATRip-AVC от Files-x

1 | 0

1.82 ГБ




Вы не можете начинать темы
Вы не можете отвечать на сообщения
Вы не можете редактировать свои сообщения
Вы не можете удалять свои сообщения
Вы не можете добавлять вложения

Перейти:  
Для Мосгорсуда, Роскомнадзора и рекламодателей: mosgorsud-torrent[собачка]yandex.ru
 Вход
ppkBB3cker v.2 © 2008-2014 @ PPK
[ Time : 0.059s | 16 Queries | GZIP : Off ]

cron