img image001 image001 image001 image001 image001 image001 image001 image001 image001 image001 image001 image001 image001 image001 image001

Planets Sun Sun Sun
Статистика раздачи
Автор: PriZraK | Размер: 4.96 ГБ | Добавлен: 09 окт 2016
Раздают: 19    Качают: 16
Скачать торрент
Скачать торрент
Описание торрента

СообщениеДобавлено: 09 окт 2016 


Информация о фильме
Название: Колыбель ангелов
Оригинальное название: Le berceau des anges
Год выхода: 2015
Жанр: драма, мини-сериал
Режиссер: Рикардо Троги
В ролях: Марианн Фортье, Себастьен Делорм, Изабель Блэ, Эв Дюрансо, Виктория Санчес, Жильдор Руа, Сандрин Биссон, Гастон Лепаж, Александрина Агостини, Хьюго Жиру
О фильме:
Фильм основан на реальных событиях. Монреаль, 1954 год. Специальная бригада брошена на поиски подпольной организации на черном рынке Квебека, занимающейся продажей внебрачных детей в США. В это же время молодая девушка Габриель Эбер обнаруживает, что забеременела, не будучи замужем. Движимая желанием найти своего возлюбленного и сохранить ребенка, она сбегает из больницы и оказывается в центре полицейского расследования...

Страна: Канада
Студия: Avanti Ciné Vidéo Inc., Canadian Film or Video Production Tax Credit (CPTC), CMF-FMC Cogeco Program Development Fund, Quebec Film and Television Tax Credit, SГ©ries+
Продолжительность: 5 x ~ 00:44:00
Перевод:
Любительский одноголосный, закадровый [Project_Web_Mania]- 01-03, 05 серии
Русские субтитры - 04 серия
Файл
Кодек: MPEG-2 Video
Качество: DVB
Видео: 720x576@1024x576 (16:9), 50 fps ~ 2800 Kbps
Звук:
AC3, 48 KHz 2 ch ~ 192 Kb/s (русский)
MP2, 48 KHz 2 ch ~ 192 Kb/s (французский)
Субтитры: русские (VobSub), английские, французские, немецкие, румынские
Общее
Уникальный идентификатор : 241228536020036389583638095262844766671 (0xB57AED14A373CD279FA6E4AB0494C9CF)
Полное имя : Q:TorF[apreder]Le_berceau_des_anges[apreder]Le_berceau_des_anges_s.1_ep.01(2014)DVB.mkv
Формат : Matroska
Версия формата : Version 2
Размер файла : 1019 Мбайт
Продолжительность : 44 м.
Режим общего битрейта : Переменный
Общий поток : 3239 Кбит/сек
Дата кодирования : UTC 2016-09-21 07:30:10
Программа кодирования : mkvmerge v5.4.0 ('Piper') built on Mar 10 2012 13:34:39
Библиотека кодирования : libebml v1.2.3 + libmatroska v1.3.0
TITLE : Le berceau des anges
IMDB : tt4550014
DATE_RELEASED : 2015-03-16
SUMMARY : s.1, ep.01
LAW_RATING : 16+
GENRE : Drama
ACTOR : Marianne Fortier
DIRECTOR : Ricardo Trogi
KEYWORDS :
Attachment : Yes / Yes
Видео
Идентификатор : 1
Формат : MPEG Video
Версия формата : Version 2
Профиль формата : Main@Main
Параметр BVOP формата : Нет
Параметр матрицы формата : Выборочная
Идентификатор кодека : V_MPEG2
Идентификатор кодека/Информация : MPEG 1 or 2 Video
Продолжительность : 44 м.
Вид битрейта : Переменный
Битрейт : 2790 Кбит/сек
Максимальный битрейт : 5408 Кбит/сек
Ширина : 720 пикселей
Высота : 576 пикселей
Соотношение сторон : 16:9
Частота кадров : 50,000 кадров/сек
Частота кадров в оригинале : 25,000 кадров/сек
Стандарт вещания : PAL
Цветовое пространство : YUV
Субдискретизация насыщенности : 4:2:0
Битовая глубина : 8 бит
Тип развёртки : Чересстрочная
Порядок развёртки : Верхнее поле первое
Метод сжатия : С потерями
Бит/(Пиксели*Кадры) : 0.135
Размер потока : 878 Мбайт (86%)
Default : Да
Forced : Нет
Аудио #1
Идентификатор : 2
Формат : AC-3
Формат/Информация : Audio Coding 3
Расширение режима : CM (complete main)
Идентификатор кодека : A_AC3
Продолжительность : 44 м.
Вид битрейта : Постоянный
Битрейт : 192 Кбит/сек
Каналы : 2 канала
Расположение каналов : Front: L R
Частота : 48,0 КГц
Битовая глубина : 16 бит
Метод сжатия : С потерями
Размер потока : 60,4 Мбайт (6%)
Заголовок : WebMania
Язык : Russian
Default : Нет
Forced : Да
Аудио #2
Идентификатор : 3
Формат : MPEG Audio
Версия формата : Version 1
Профиль формата : Layer 2
Идентификатор кодека : A_MPEG/L2
Идентификатор кодека/Подсказка : MP2
Продолжительность : 44 м.
Вид битрейта : Постоянный
Битрейт : 192 Кбит/сек
Каналы : 2 канала
Частота : 48,0 КГц
Метод сжатия : С потерями
Размер потока : 60,4 Мбайт (6%)
Язык : French
Default : Нет
Forced : Нет
Текст #1
Идентификатор : 4
Формат : VobSub
Режим смешивания : zlib
Идентификатор кодека : S_VOBSUB
Идентификатор кодека/Информация : The same subtitle format used on DVDs
Язык : Russian
Default : Нет
Forced : Нет
Текст #2
Идентификатор : 5
Формат : UTF-8
Идентификатор кодека : S_TEXT/UTF8
Идентификатор кодека/Информация : UTF-8 Plain Text
Язык : English
Default : Нет
Forced : Нет
Текст #3
Идентификатор : 6
Формат : UTF-8
Идентификатор кодека : S_TEXT/UTF8
Идентификатор кодека/Информация : UTF-8 Plain Text
Язык : French
Default : Нет
Forced : Нет
Текст #4
Идентификатор : 7
Формат : VobSub
Режим смешивания : zlib
Идентификатор кодека : S_VOBSUB
Идентификатор кодека/Информация : The same subtitle format used on DVDs
Язык : German
Default : Нет
Forced : Нет
Текст #5
Идентификатор : 8
Формат : VobSub
Режим смешивания : zlib
Идентификатор кодека : S_VOBSUB
Идентификатор кодека/Информация : The same subtitle format used on DVDs
Язык : Dutch
Default : Нет
Forced : Нет
Текст #6
Идентификатор : 9
Формат : VobSub
Режим смешивания : zlib
Идентификатор кодека : S_VOBSUB
Идентификатор кодека/Информация : The same subtitle format used on DVDs
Язык : Romanian
Default : Нет
Forced : Нет




   Похожие торренты   Торрент   Размер 
В этой теме нет новых непрочитанных сообщений. Колыбель ангелов / Le berceau des anges [01x01-03] (2015) HDTVRip | L1

0 | 0

1.61 ГБ

В этой теме нет новых непрочитанных сообщений. Колыбель теней / Le berceau des ombres (2015) DVDRip | L2

570 | 65

752.97 МБ

В этой теме нет новых непрочитанных сообщений. Колыбель теней / Le berceau des ombres (2015) DVDRip | L2

622 | 58

1.36 ГБ

В этой теме нет новых непрочитанных сообщений. Колыбель теней / Le berceau des ombres (2015) DVDRip от ExKinoRay | L1

1461 | 113

752.97 МБ

В этой теме нет новых непрочитанных сообщений. Анжелика – маркиза ангелов / Angеlique - marquise des anges (1964) DVDRip

7 | 4

1.69 ГБ

В этой теме нет новых непрочитанных сообщений. Анжелика, маркиза ангелов / Angеlique, marquise des anges (1964) DVDRip

13 | 2

1.45 ГБ

В этой теме нет новых непрочитанных сообщений. Мари с залива Ангелов / Marie Baie des Anges (1987) DVDRip | Sub

11 | 3

698.95 МБ




Вы не можете начинать темы
Вы не можете отвечать на сообщения
Вы не можете редактировать свои сообщения
Вы не можете удалять свои сообщения
Вы не можете добавлять вложения

Перейти:  
Для Мосгорсуда, Роскомнадзора и рекламодателей: mosgorsud-torrent[собачка]yandex.ru
 Вход
ppkBB3cker v.2 © 2008-2014 @ PPK
[ Time : 0.060s | 15 Queries | GZIP : Off ]

Торрент трекер RUTOR.IN, Не можете зайти на rutor.org? Какой новый адрес рутор? Какое зеркало рутор? Не работает rutor.org и зеркала? Тогда наш торрент специально для вас. Rutor.in неофициальное зеркало rutor. В случае если у Вас заблокирован rutor или вдруг Вы не можете на него зайти, то Вы без труда сможете скачать бесплатно и без рекламы последние новинки кино, игр, сериалов и прочего у нас, на Rutor.in. Не нужно использовать прокси, чтобы зайти на рутор, достаточно воспользоваться нашим ресурсом. Все новые фильмы, игры, сериалы, книги и музыка за 2013 и 2014 годы через торрент бесплатно. Скачивайте фильмы в хорошем качестве, игры для пк, xbox, playstation без регистрации. У нас вы найдете новые Зарубежные сериалы и Русские сериалы 2013, 2014, 2015 годов. Оставайтесь с нами, качайте любимые фильмы, игры, сериалы, книги и музыку.