img image001 image001 image001 image001 image001 image001 image001 image001 image001 image001 image001 image001 image001 image001 image001

Planets Sun Sun Sun
Статистика раздачи
Автор: PriZraK | Размер: 1.46 ГБ | Добавлен: 10 окт 2016
Раздают: 4    Качают: 2
Скачать торрент
Скачать торрент
Описание торрента

СообщениеДобавлено: 10 окт 2016 


Информация о фильме
Оригинальное название: Женщина его мечты
Год выпуска: 2016
Жанр: Лирическая комедия
Режиссер: Ашот Кещян
В ролях: Фатима Горбенко, Елена Муравьёва, Юлия Зимина, Юрий Батурин, Константин Соловьёв, Митя Лабуш, Михаил Дорожкин, Леонид Громов, Нина Касторф, Сергей Булин, Фёдор Гуринец, Алексей Смолка, Татьяна Юрикова, Евгений Паперный, Артём Мартынишин, Андрей Лелюх, Антонина Макарчук, Светлана Косолапова, Николай Олейник, Сергей Калантай, Игорь Гнездилов, Татьяна Печёнкина
О фильме:
На редколлегии женского еженедельника «XXS» в этот раз было не скучно. Обсуждали не обложку, не верстку и не страницу гороскопов. Нешуточные страсти разгорелись вокруг темы ноябрьского номера: «Чего хотят мужчины?» В схватке участвовали три акулы – три главных автора журнала: Лиза Пахомова («умница»), Вероника Ланская («красавица») и Оля Пышненко («душечка»). Лиза выступала за интеллектуальное соответствие высоким запросам современного мужчины: успехом, по ее мнению, сегодня пользуются остроумные, блестящие женщины с широким кругом интересов. Вероника со знанием дела уверяла, что у нее уйдет пятнадцать минут на то, чтобы отбить мужчину даже у нобелевской лауреатки – достаточно надеть шпильки и слегка подкрасить губы. Оля сказала, что они могут хоть подраться за внимание мужчин – да, на свидания их будут приглашать... но женятся мужчины на таких, как она: уютных, милых, домашних. В конце концов главный редактор Михаил Михайлович Ильин хлопнул кулаком по столу: «хватит пустых слов, идите и докажите! Через месяц жду вас здесь: у кого будет больше предложений руки и сердца, та и будет писать главную статью». Впрочем, у директора есть свой ответ на вопрос: «Чего хотят мужчины?» Для чистоты эксперимента он написал его тут же, на редколлегии, и заклеил конверт. Через месяц проверим – угадал он или нет.

Страна: Россия
Студия: "Энерджи Фильм Продакшен"
Продолжительность: 4 x ~ 00:44:00
Перевод: Не требуется
Файл
Формат: AVI
Качество: WEB-DLRip
Видео: XviD build 73, 656x368 (16:9), 25.000 fps, ~ 900 Kbps (~ 0.150 bit/pixel)
Звук: 48.0 kHz, MP3, 2/0 ch, 128 kbps
Субтитры: нет
General
Complete name : Zhensina.Ego.Mechty.(2016).XviD.WEB-DLRip.by.GeneralFilmserija.01.avi
Format : AVI
Format/Info : Audio Video Interleave
File size : 374 MiB
Duration : 49mn 58s
Overall bit rate : 1 045 Kbps
Writing application : VirtualDubMod 1.5.10.3 | www.virtualdub-fr.org || (build 2550/release)
Writing library : VirtualDubMod build 2550/release
Video
ID : 0
Format : MPEG-4 Visual
Format profile : Advanced Simple@L5
Format settings, BVOP : 1
Format settings, QPel : No
Format settings, GMC : No warppoints
Format settings, Matrix : Custom
Codec ID : XVID
Codec ID/Hint : XviD
Duration : 49mn 58s
Bit rate : 908 Kbps
Width : 656 pixels
Height : 368 pixels
Display aspect ratio : 16:9
Frame rate : 25.000 fps
Color space : YUV
Chroma subsampling : 4:2:0
Bit depth : 8 bits
Scan type : Progressive
Compression mode : Lossy
Bits/(Pixel*Frame) : 0.150
Stream size : 324 MiB (87%)
Writing library : XviD 73
Audio
ID : 1
Format : MPEG Audio
Format version : Version 1
Format profile : Layer 3
Codec ID : 55
Codec ID/Hint : MP3
Duration : 49mn 58s
Bit rate mode : Constant
Bit rate : 128 Kbps
Channel(s) : 2 channels
Sampling rate : 48.0 KHz
Compression mode : Lossy
Stream size : 45.7 MiB (12%)
Alignment : Aligned on interleaves
Interleave, duration : 40 ms (1.00 video frame)
Interleave, preload duratio : 504 ms
Writing library : LAME3.99r
Encoding settings : -m s -V 4 -q 0 -lowpass 17 -b 128





Релиз от:



   Похожие торренты   Торрент   Размер 
В этой теме нет новых непрочитанных сообщений. Женщина его мечты [01-02 из 04] (2016) WEB-DLRip от Files-x

61 | 12

2.45 ГБ

В этой теме нет новых непрочитанных сообщений. Женщина его мечты [01-04 из 04] (2016) WEB-DLRip от Files-x

138 | 12

2.34 ГБ

В этой теме нет новых непрочитанных сообщений. Женщина его мечты [01-04 из 04] (2016) WEB-DLRip 720p от MegaPeer

13 | 2

3.76 ГБ

В этой теме нет новых непрочитанных сообщений. Женщина его мечты [01-04 из 04] (2016) SATRip-AVC от Files-x

7 | 0

1.83 ГБ

В этой теме нет новых непрочитанных сообщений. Так поступает женщина [01-04 из 04] (2016) WEB-DLRip от GeneralFilm

47 | 0

1.46 ГБ

В этой теме нет новых непрочитанных сообщений. Женщина с лилиями (2016) WEB-DLRip от GeneralFilm

16 | 0

745.6 МБ

В этой теме нет новых непрочитанных сообщений. Мечты из пластилина (2012) WEB-DLRip от Generalfilm

52 | 9

1.37 ГБ




Вы не можете начинать темы
Вы не можете отвечать на сообщения
Вы не можете редактировать свои сообщения
Вы не можете удалять свои сообщения
Вы не можете добавлять вложения

Перейти:  
Для Мосгорсуда, Роскомнадзора и рекламодателей: mosgorsud-torrent[собачка]yandex.ru
 Вход
ppkBB3cker v.2 © 2008-2014 @ PPK
[ Time : 0.053s | 15 Queries | GZIP : Off ]

Торрент трекер RUTOR.IN, Не можете зайти на rutor.org? Какой новый адрес рутор? Какое зеркало рутор? Не работает rutor.org и зеркала? Тогда наш торрент специально для вас. Rutor.in неофициальное зеркало rutor. В случае если у Вас заблокирован rutor или вдруг Вы не можете на него зайти, то Вы без труда сможете скачать бесплатно и без рекламы последние новинки кино, игр, сериалов и прочего у нас, на Rutor.in. Не нужно использовать прокси, чтобы зайти на рутор, достаточно воспользоваться нашим ресурсом. Все новые фильмы, игры, сериалы, книги и музыка за 2013 и 2014 годы через торрент бесплатно. Скачивайте фильмы в хорошем качестве, игры для пк, xbox, playstation без регистрации. У нас вы найдете новые Зарубежные сериалы и Русские сериалы 2013, 2014, 2015 годов. Оставайтесь с нами, качайте любимые фильмы, игры, сериалы, книги и музыку.
cron