img image001 image001 image001 image001 image001 image001 image001 image001 image001 image001 image001 image001 image001 image001 image001

Planets Sun Sun Sun
Статистика раздачи
Автор: PriZraK | Размер: 349.66 МБ | Добавлен: 11 окт 2016
Раздают: 10    Качают: 0
Скачать торрент
Скачать торрент
Описание торрента

СообщениеДобавлено: 11 окт 2016 


Информация о фильме
Название: Светофор
Год выхода: 2016
Жанр: Ситком, комедия, ремейк
Режиссёр: Роман Фокин
В ролях: Джемал Тетруашвили, Александр Макогон, Дмитрий Миллер, Ольга Медынич, Оскар Кучера, Антонина Комиссарова
О фильме: Многие телезрители уже успели соскучиться по любимым киногероям Светофора. Поэтому спешим вас обрадовать - все главные персонажи Сева, Паша и Эдик вновь будут удивлять безумными приключениями, которые относятся к разряду "нарочно не придумаешь". Это своего рода продолжение истории Светофора с теми же героями, но новыми событиями. Нашим "парням" - Эдику, Паше и Севе кажется, что все "экстремальное" осталось в прошлом, но они глубоко ошибаются. Пока все они заняты своей жизнью, которая протекает в более спокойной и размеренной обстановке. Паша упорно строит карьеру на ТВ, Сева вновь окунулся в семейные дела, а Эдик достиг желаемого и обзавелся своей студией. Спокойствию и миру приходит конец когда неожиданно появляется их давно преданный забвению друг Роман. Вернувшийся из Штатов Роман буквально фонтанирует новыми идеями и красочными перспективами. Впереди у него "великие" планы, в осуществлении которых несомненно требуется участие нашей троицы мужиков.

Выпущено: Россия, СТС, Yellow, Black & White
Продолжительность: ~ 00:24:00 / Серия
Перевод: Не требуется
Файл
Качество: WEB-DLRip
Видео: XviD, 704x400 (16:9), ~ 1800 Кбит/с, 25 кадр/с, 0.263 bit/pixel
Аудио: Русский, MP3, 48000 Гц, 128 Кбит/с, 2 канала (Стерео)

General
Complete name : F:DownloadsSvetofor.s09.2016.WEB-DLRip.by.ivandubskojSvetofor.s09.e01.WEB-DLRip.avi
Format : AVI
Format/Info : Audio Video Interleave
File size : 350 MiB
Duration : 25mn 31s
Overall bit rate : 1 916 Kbps
Writing application : VirtualDubMod 1.5.10.3 | www.virtualdub-fr.org || (build 2550/release)
Writing library : VirtualDubMod build 2550/release
Video
ID : 0
Format : MPEG-4 Visual
Format profile : Advanced Simple@L5
Format settings, BVOP : 1
Format settings, QPel : No
Format settings, GMC : No warppoints
Format settings, Matrix : Custom
Codec ID : XVID
Codec ID/Hint : XviD
Duration : 25mn 31s
Bit rate : 1 778 Kbps
Width : 704 pixels
Height : 400 pixels
Display aspect ratio : 16:9
Frame rate : 25.000 fps
Color space : YUV
Chroma subsampling : 4:2:0
Bit depth : 8 bits
Scan type : Progressive
Compression mode : Lossy
Bits/(Pixel*Frame) : 0.253
Stream size : 325 MiB (93%)
Writing library : XviD 73
Audio
ID : 1
Format : MPEG Audio
Format version : Version 1
Format profile : Layer 3
Codec ID : 55
Codec ID/Hint : MP3
Duration : 25mn 31s
Bit rate mode : Constant
Bit rate : 128 Kbps
Channel(s) : 2 channels
Sampling rate : 48.0 KHz
Compression mode : Lossy
Stream size : 23.4 MiB (7%)
Alignment : Aligned on interleaves
Interleave, duration : 40 ms (1.00 video frame)
Interleave, preload duration : 504 ms
Writing library : LAME3.99r
Encoding settings : -m s -V 4 -q 0 -lowpass 17 -b 128




Автор рипа - ivandubskoj



   Похожие торренты   Торрент   Размер 
В этой теме нет новых непрочитанных сообщений. Светофор [09x01 из 20] (2016) WEB-DLRip от ivandubskoj

11 | 22

1.01 ГБ

В этой теме нет новых непрочитанных сообщений. Светофор [09x01-02 из 20] (2016) WEB-DLRip от Files-x

0 | 0

1.17 ГБ

В этой теме нет новых непрочитанных сообщений. Светофор [09x01 из 20] (2016) WEB-DLRip-AVC от Files-x

9 | 0

639.73 МБ

В этой теме нет новых непрочитанных сообщений. Светофор [09x01 из 20] (2016) WEB-DLRip-AVC от Files-x

1 | 0

946.55 МБ

В этой теме нет новых непрочитанных сообщений. Светофор [09x01-02 из 20] (2016) WEB-DLRip от Files-x

0 | 2

898.65 МБ

В этой теме нет новых непрочитанных сообщений. Светофор [09x01-17 из 20] (2016) WEB-DLRip от Kaztorrents | КПК

11 | 16

2.59 ГБ

В этой теме нет новых непрочитанных сообщений. Светофор [08x01 из 20] (2016) WEB-DLRip от ivandubskoj

130 | 262

2.05 ГБ




Вы не можете начинать темы
Вы не можете отвечать на сообщения
Вы не можете редактировать свои сообщения
Вы не можете удалять свои сообщения
Вы не можете добавлять вложения

Перейти:  
Для Мосгорсуда, Роскомнадзора и рекламодателей: mosgorsud-torrent[собачка]yandex.ru
 Вход
ppkBB3cker v.2 © 2008-2014 @ PPK
[ Time : 0.042s | 15 Queries | GZIP : Off ]

Торрент трекер RUTOR.IN, Не можете зайти на rutor.org? Какой новый адрес рутор? Какое зеркало рутор? Не работает rutor.org и зеркала? Тогда наш торрент специально для вас. Rutor.in неофициальное зеркало rutor. В случае если у Вас заблокирован rutor или вдруг Вы не можете на него зайти, то Вы без труда сможете скачать бесплатно и без рекламы последние новинки кино, игр, сериалов и прочего у нас, на Rutor.in. Не нужно использовать прокси, чтобы зайти на рутор, достаточно воспользоваться нашим ресурсом. Все новые фильмы, игры, сериалы, книги и музыка за 2013 и 2014 годы через торрент бесплатно. Скачивайте фильмы в хорошем качестве, игры для пк, xbox, playstation без регистрации. У нас вы найдете новые Зарубежные сериалы и Русские сериалы 2013, 2014, 2015 годов. Оставайтесь с нами, качайте любимые фильмы, игры, сериалы, книги и музыку.