img image001 image001 image001 image001 image001 image001 image001 image001 image001 image001 image001 image001 image001 image001 image001

Planets Sun Sun Sun
Статистика раздачи
Автор: Nickolas3434 | Размер: 7.16 ГБ | Добавлен: 14 окт 2016
Раздают: 39    Качают: 11
Скачать торрент
Скачать торрент
Описание торрента

СообщениеДобавлено: 14 окт 2016 


Тайна Крикли-холла / The Secret of Crickley Hall
Страна: Великобритания
Производство: BBC Manchester
Год выпуска: 2012
Сезон: 1
Жанр: ужасы, драма, детектив
Продолжительность: 3х ~00:59:00
Режиссер: Джо Эхирн
Авторы сценария: Джо Эхирн, Джеймс Херберт
В ролях: Сюранна Джоунс, Том Эллис, Дуглас Хеншэлл, Дэвид Уорнер, Сара Смарт, Йен де Кестекер, Оливия Кук, Мэйси Уильямс, Билл Милнер
Описание: Спустя год после исчезновения сына, Гейб и Ева Калей переезжают с двумя дочерьми в Крикли-холл в попытке убежать от своих воспоминаний. И дать шанс своей семьей начать жизнь заново. Но дверь подвала вдруг начинает открываться сама по себе, невидимые дети плакать по ночам, а разъярённые призраки бродить в камышах. Но когда семья Калей уже приближается к решению съехать, Ева слышит голос своего пропавшего сына. Нащупав связь между событиями 1943 года и настоящим, семья Калей пытается выяснить, что связывает Крикли-холл с их пропавшим сыном. Найдут ли они Кэма прежде, чем Крикли-холл заберёт их дочерей..?

Перевод: Профессиональный (многоголосый, закадровый) | Agatha Studdio
Субтитры: английские

Качество: WEB-DLRip 1080p
Формат: МКV
Видео кодек: AVC
Аудио кодек: АС3
Видео: 1912x1072 (16:9), 25.000 fps, MPEG-4 AVC ~5 060 kbps avg
Аудио №1: 48.0 kHz, AC3 Dolby Digital, 3/2 (L,C,R,l,r) + LFE ch, ~384 kbps | RUS
Аудио №2: 48.0 kHz, AC3 Dolby Digital, 3/2 (L,C,R,l,r) + LFE ch, ~384 kbps | ENG
Формат субтитров: UTF-8 Plain Text
Дата премьеры (мир): 28 октября 2012
General
Format : Matroska
Format version : Version 4 / Version 2
File size : 2.41 GiB
Duration : 58mn 4s
Overall bit rate : 5 947 Kbps
Encoded date : UTC 2014-05-30 13:58:37
Writing application : mkvmerge v6.9.1 ('Blue Panther') 64bit built on Apr 18 2014 18:23:38
Writing library : libebml v1.3.0 + libmatroska v1.4.1
Video
ID : 1
Format : AVC
Format/Info : Advanced Video Codec
Format profile : High@L4.0
Format settings, CABAC : Yes
Format settings, ReFrames : 4 frames
Codec ID : V_MPEG4/ISO/AVC
Duration : 58mn 4s
Bit rate : 5 060 Kbps
Width : 1 912 pixels
Height : 1 072 pixels
Display aspect ratio : 16:9
Frame rate mode : Constant
Frame rate : 25.000 fps
Color space : YUV
Chroma subsampling : 4:2:0
Bit depth : 8 bits
Scan type : Progressive
Bits/(Pixel*Frame) : 0.099
Stream size : 2.05 GiB (85%)
Language : English
Default : Yes
Forced : No
Color primaries : BT.709
Transfer characteristics : BT.709
Matrix coefficients : BT.709
Audio #1
ID : 2
Format : AC-3
Format/Info : Audio Coding 3
Mode extension : CM (complete main)
Format settings, Endianness : Big
Codec ID : A_AC3
Duration : 58mn 4s
Bit rate mode : Constant
Bit rate : 384 Kbps
Channel count : 6 channels
Channel positions : Front: L C R, Side: L R, LFE
Sampling rate : 48.0 KHz
Bit depth : 16 bits
Compression mode : Lossy
Stream size : 159 MiB (6%)
Language : Russian
Default : Yes
Forced : No
Audio #2
ID : 3
Format : AC-3
Format/Info : Audio Coding 3
Mode extension : CM (complete main)
Format settings, Endianness : Big
Codec ID : A_AC3
Duration : 58mn 4s
Bit rate mode : Constant
Bit rate : 384 Kbps
Channel count : 6 channels
Channel positions : Front: L C R, Side: L R, LFE
Sampling rate : 48.0 KHz
Bit depth : 16 bits
Compression mode : Lossy
Stream size : 159 MiB (6%)
Language : English
Default : No
Forced : No
Text
ID : 4
Format : UTF-8
Codec ID : S_TEXT/UTF8
Codec ID/Info : UTF-8 Plain Text
Default : No
Forced : No



   Похожие торренты   Торрент   Размер 
В этой теме нет новых непрочитанных сообщений. Тайна Крикли-холла / The Secret of Crickley Hall [S01] (2012) WEB-DLRip 720p | Р

46 | 12

5.83 ГБ

В этой теме нет новых непрочитанных сообщений. Тайна Крикли Холла / The Secret of Crickley Hall [01x01-03 из 3] (2012) WEB-DLRip Sauliux

13 | 7

1.99 ГБ

В этой теме нет новых непрочитанных сообщений. Yanni - Прямой эфир из Королевского Альберт-Холла / Yanni - Live at Royal Albert Hall (1995) TVRip от SilverCinema

87 | 3

701.09 МБ

В этой теме нет новых непрочитанных сообщений. Феи: Тайна зимнего леса / Secret of the Wings (2012) BDRip 1080p

91 | 7

4.37 ГБ

В этой теме нет новых непрочитанных сообщений. Феи: Тайна зимнего леса / Secret of the Wings (2012) BDRip 1080p | 3D-Video | L

5 | 4

6.68 ГБ

В этой теме нет новых непрочитанных сообщений. Феи: Тайна зимнего леса / Secret of the Wings (2012) BDRip 1080p от Youtracker | Лицензия

82 | 13

6.97 ГБ

В этой теме нет новых непрочитанных сообщений. Феи: Тайна зимнего леса / Secret of the Wings (2012) BDRip 1080p от Youtracker | 3D-Video

40 | 2

6.81 ГБ




Вы не можете начинать темы
Вы не можете отвечать на сообщения
Вы не можете редактировать свои сообщения
Вы не можете удалять свои сообщения
Вы не можете добавлять вложения

Перейти:  
Для Мосгорсуда, Роскомнадзора и рекламодателей: mosgorsud-torrent[собачка]yandex.ru
 Вход
ppkBB3cker v.2 © 2008-2014 @ PPK
[ Time : 0.059s | 15 Queries | GZIP : Off ]

Торрент трекер RUTOR.IN, Не можете зайти на rutor.org? Какой новый адрес рутор? Какое зеркало рутор? Не работает rutor.org и зеркала? Тогда наш торрент специально для вас. Rutor.in неофициальное зеркало rutor. В случае если у Вас заблокирован rutor или вдруг Вы не можете на него зайти, то Вы без труда сможете скачать бесплатно и без рекламы последние новинки кино, игр, сериалов и прочего у нас, на Rutor.in. Не нужно использовать прокси, чтобы зайти на рутор, достаточно воспользоваться нашим ресурсом. Все новые фильмы, игры, сериалы, книги и музыка за 2013 и 2014 годы через торрент бесплатно. Скачивайте фильмы в хорошем качестве, игры для пк, xbox, playstation без регистрации. У нас вы найдете новые Зарубежные сериалы и Русские сериалы 2013, 2014, 2015 годов. Оставайтесь с нами, качайте любимые фильмы, игры, сериалы, книги и музыку.