img image001 image001 image001 image001 image001 image001 image001 image001 image001 image001 image001 image001 image001 image001 image001

Planets Sun Sun Sun
Статистика раздачи
Автор: Nickolas3434 | Размер: 6.76 ГБ | Добавлен: 14 окт 2016
Раздают: 5    Качают: 3
Скачать торрент
Скачать торрент
Описание торрента

СообщениеДобавлено: 14 окт 2016 



♰ Проповедник ♰



Информация о фильме:
✦Название: Проповедник
✦ Оригинальное название: Preacher
✦ Год выхода: 2016
✦ Жанр: фэнтези, драма, детектив, приключения
✦ Режиссер: Эван Голдберг, Сет Роген, Майкл Словис
✦ В ролях: Доминик Купер, Том Брук, У. Эрл Браун, Йен Коллетти, Джозеф Гилган, Люси Гриффитс, Джеки Эрл Хейли, Рут Негга, Дерек Уилсон, Анатол Юсеф

О фильме:[/b]
Проповедник Джесси Кастер по воле случая стал носителем внутри своего естества странного существа по имени Генезис. Это дитя совокупления ангела и демона представляет собой одновременно чистый идеал и квинтэссенцию света, но также сгусток абсолютного зла. Генезис — единственное существо во Вселенной, которое может встать вровень с Богом, если того пожелает, а его носитель автоматически становится самым могущественным существом в материальном мире. И это проповедник Кастер.

✦ Страна: США
✦ Студия: AMC Studios
✦ Продолжительность: ~ 00:65:00
✦ Перевод: профессиональный (многоголосый, закадровый)
- LostFilm

Информация о файле:
✦ Формат:| MKV | x264 |
✦ Качество: BDRip 720p (NTb)
✦ Видео: X264/MPEG4-AVC | 1280x720 (16:9) | ~5500 kbps | 23.976 fps
✦ Аудио Rus: AC3 | 48 KHz | 5.1 (Front: L С R Side: L R) + LFE | ~640 kbps
✦ Аудио Eng: AC3 | 48 KHz | 5.1 (Front: L С R Side: L R) + LFE | ~640 kbps
✦ Субтитры: | | английские |


Общее
Уникальный идентификатор : 170581310385054652299281973696150905222 (0x8054C3EEC947A5FD9DD92B110A602186)
Полное имя : X:ATorrentPreacher (Season 01) LostFilm 720Preacher.S01E01.BDRip720p.DD5.1.LOSTFilM.(qqss44).mkv
Формат : Matroska
Версия формата : Version 2
Размер файла : 2,93 Гбайт
Продолжительность : 1 ч. 4 м.
Общий поток : 6472 Кбит/сек
Дата кодирования : UTC 2016-10-13 15:05:54
Программа кодирования : mkvmerge v7.9.0 ('Birds') 64bit
Библиотека кодирования : libebml v1.3.1 + libmatroska v1.4.2
Видео
Идентификатор : 1
Формат : AVC
Формат/Информация : Advanced Video Codec
Профиль формата : High@L4.1
Параметр CABAC формата : Да
Параметр ReFrames формата : 9 кадров
Идентификатор кодека : V_MPEG4/ISO/AVC
Продолжительность : 1 ч. 4 м.
Битрейт : 5191 Кбит/сек
Ширина : 1280 пикселей
Высота : 720 пикселей
Соотношение сторон : 16:9
Режим частоты кадров : Постоянный
Частота кадров : 23,976 (24000/1001) кадра/сек
Цветовое пространство : YUV
Субдискретизация насыщенности : 4:2:0
Битовая глубина : 8 бит
Тип развёртки : Прогрессивная
Бит/(Пиксели*Кадры) : 0.235
Размер потока : 2,35 Гбайт (80%)
Библиотека кодирования : x264 core 148 r2721kMod 72d53ab
Настройки программы : cabac=1 / ref=9 / deblock=1:-3:-3 / analyse=0x3:0x133 / me=umh / subme=10 / psy=1 / fade_compensate=0.00 / psy_rd=1.00:0.00 / mixed_ref=1 / me_range=24 / chroma_me=1 / trellis=2 / 8x8dct=1 / cqm=0 / deadzone=21,11 / fast_pskip=0 / chroma_qp_offset=-2 / threads=56 / lookahead_threads=5 / sliced_threads=0 / nr=0 / decimate=0 / interlaced=0 / bluray_compat=0 / constrained_intra=0 / fgo=0 / bframes=9 / b_pyramid=2 / b_adapt=2 / b_bias=0 / direct=3 / weightb=1 / open_gop=0 / weightp=2 / keyint=250 / keyint_min=23 / scenecut=40 / intra_refresh=0 / rc_lookahead=60 / rc=crf / mbtree=0 / crf=17.0000 / qcomp=0.65 / qpmin=0 / qpmax=69 / qpstep=4 / vbv_maxrate=62500 / vbv_bufsize=78125 / crf_max=0.0 / nal_hrd=none / filler=0 / ip_ratio=1.30 / pb_ratio=1.20 / aq=3:0.75
Язык : English
Default : Да
Forced : Нет
Цветовой диапазон : Limited
Коэффициенты матрицы : BT.709
Аудио #1
Идентификатор : 2
Формат : AC-3
Формат/Информация : Audio Coding 3
Расширение режима : CM (complete main)
Параметр Endianness формата : Big
Идентификатор кодека : A_AC3
Продолжительность : 1 ч. 4 м.
Вид битрейта : Постоянный
Битрейт : 640 Кбит/сек
Каналы : 6 каналов
Расположение каналов : Front: L C R, Side: L R, LFE
Частота : 48,0 КГц
Частота кадров : 31,250 кадров/сек (1536 spf)
Метод сжатия : С потерями
Размер потока : 297 Мбайт (10%)
Заголовок : LostFilm | DD5.1 @ 640 kbps
Язык : Russian
Default : Да
Forced : Нет
Аудио #2
Идентификатор : 3
Формат : AC-3
Формат/Информация : Audio Coding 3
Расширение режима : CM (complete main)
Параметр Endianness формата : Big
Идентификатор кодека : A_AC3
Продолжительность : 1 ч. 4 м.
Вид битрейта : Постоянный
Битрейт : 640 Кбит/сек
Каналы : 6 каналов
Расположение каналов : Front: L C R, Side: L R, LFE
Частота : 48,0 КГц
Частота кадров : 31,250 кадров/сек (1536 spf)
Метод сжатия : С потерями
Размер потока : 297 Мбайт (10%)
Заголовок : Original | DD5.1 @ 640 kbps
Язык : English
Default : Нет
Forced : Нет
Текст #1
Идентификатор : 4
Формат : UTF-8
Идентификатор кодека : S_TEXT/UTF8
Идентификатор кодека/Информация : UTF-8 Plain Text
Продолжительность : 1 ч. 3 м.
Битрейт : 80 бит/сек
Count of elements : 791
Размер потока : 37,2 Кбайт (0%)
Заголовок : FULL
Язык : Russian
Default : Нет
Forced : Нет
Текст #2
Идентификатор : 5
Формат : UTF-8
Идентификатор кодека : S_TEXT/UTF8
Идентификатор кодека/Информация : UTF-8 Plain Text
Продолжительность : 8 м. 25 с.
Битрейт : 17 бит/сек
Count of elements : 34
Размер потока : 1,09 Кбайт (0%)
Заголовок : FORCED
Язык : English
Default : Нет
Forced : Нет
Текст #3
Идентификатор : 6
Формат : UTF-8
Идентификатор кодека : S_TEXT/UTF8
Идентификатор кодека/Информация : UTF-8 Plain Text
Продолжительность : 1 ч. 3 м.
Битрейт : 53 бит/сек
Count of elements : 797
Размер потока : 24,9 Кбайт (0%)
Заголовок : FULL
Язык : English
Default : Нет
Forced : Нет
Меню
00:00:00.000 : en:00:00:00.000
00:02:42.162 : en:00:02:42.162
00:10:30.964 : en:00:10:30.964
00:20:58.299 : en:00:20:58.299
00:27:55.507 : en:00:27:55.507
00:32:56.558 : en:00:32:56.558
00:46:04.595 : en:00:46:04.595
01:04:18.938 : en:01:04:18.938
Когда раздача ведётся путём добавления новых серий, при каждом добавлении создётся новый торрент. Чтобы начать докачку новой серии, пользователям необходимо сделать следующее:
(1) остановить скачивание,
(2) удалить старый торрент у себя из клиента (старые серии удалять не надо),
(3) скачать новый торрент и запустить его у себя в клиенте вместо старого, при этом указать клиенту путь в старую папку, куда и должно происходить скачивание новых серий.
Ваш клиент при этом должен произвести хеширование (проверку) старой папки (если не производит сам - помогите ему сделать это), и будет докачивать только те серии, которых у вас ещё нет. Старые серии при этом не удаляются, а продолжают раздаваться!
Eсли вы уже удалили старые серии, то предотвратить повторную закачку старых серий можно, отжав галочку в соответсвующих местах при запуске нового торрента. По возможности, желательно не удалять старые серии как можно дольше, чтобы релизёр не столько продолжал раздавать старые серии, а смог сконцентрироваться на новых.
ЦитатаКто-то писал:
Дорожка 1 получена путем наложения выделенных голосов LostFilm на центральный канал оригинала (qqss44)



   Похожие торренты   Торрент   Размер 
В этой теме нет новых непрочитанных сообщений. Проповедник / Preacher [01x01 из 10] (2016) BDRip от qqss44 | LostFilm

6 | 1

3.04 ГБ

В этой теме нет новых непрочитанных сообщений. Проповедник / Preacher [01х01 из 10] (2016) WEB-DLRip от qqss44 | LostFilm

134 | 12

799.39 МБ

В этой теме нет новых непрочитанных сообщений. Проповедник / Preacher [01х01-07 из 10] (2016) WEB-DLRip от qqss44 | LostFilm

513 | 414

4.03 ГБ

В этой теме нет новых непрочитанных сообщений. Проповедник / Preacher [01x01-02 из 10] (2016) WEB-DLRip от Scarabey | LostFilm

69 | 13

1.86 ГБ

В этой теме нет новых непрочитанных сообщений. Проповедник / Preacher [01x01-03 из 10] (2016) WEB-DL 720p | IdeaFilm

7 | 65

4.99 ГБ

В этой теме нет новых непрочитанных сообщений. Проповедник / Preacher [01x01 из 10] (2016) WEB-DL 720p | IdeaFilm

21 | 5

2.05 ГБ

В этой теме нет новых непрочитанных сообщений. Проповедник / Preacher [01x01 из 10] (2016) WEB-DL (720p) | Кравец

153 | 5

1.45 ГБ




Вы не можете начинать темы
Вы не можете отвечать на сообщения
Вы не можете редактировать свои сообщения
Вы не можете удалять свои сообщения
Вы не можете добавлять вложения

Перейти:  
Для Мосгорсуда, Роскомнадзора и рекламодателей: mosgorsud-torrent[собачка]yandex.ru
 Вход
ppkBB3cker v.2 © 2008-2014 @ PPK
[ Time : 0.033s | 17 Queries | GZIP : On ]

Торрент трекер RUTOR.IN, Не можете зайти на rutor.org? Какой новый адрес рутор? Какое зеркало рутор? Не работает rutor.org и зеркала? Тогда наш торрент специально для вас. Rutor.in неофициальное зеркало rutor. В случае если у Вас заблокирован rutor или вдруг Вы не можете на него зайти, то Вы без труда сможете скачать бесплатно и без рекламы последние новинки кино, игр, сериалов и прочего у нас, на Rutor.in. Не нужно использовать прокси, чтобы зайти на рутор, достаточно воспользоваться нашим ресурсом. Все новые фильмы, игры, сериалы, книги и музыка за 2013 и 2014 годы через торрент бесплатно. Скачивайте фильмы в хорошем качестве, игры для пк, xbox, playstation без регистрации. У нас вы найдете новые Зарубежные сериалы и Русские сериалы 2013, 2014, 2015 годов. Оставайтесь с нами, качайте любимые фильмы, игры, сериалы, книги и музыку.