img image001 image001 image001 image001 image001 image001 image001 image001 image001 image001 image001 image001 image001 image001 image001

Planets Sun Sun Sun
Статистика раздачи
Автор: Nickolas3434 | Размер: 4.35 ГБ | Добавлен: 14 окт 2016
Раздают: 64    Качают: 12
Скачать торрент
Скачать торрент
Описание торрента

СообщениеДобавлено: 14 окт 2016 


Информация о фильме
Оригинальное название: Забудь и вспомни
Год выпуска: 2016
Жанр: Триллер, мелодрама
Режиссер: Максим Мехеда
В ролях: Александр Кобзарь, Анна Васильева, Антон Соколов (II), Александр Гетьманский, Анна Кошмал, Татьяна Лялина, Ксения Годунова, Марк Дробот, Андрей Мостренко, Ирина Мак, Михаил Досенко, Яков Кучеревский, Игорь Рубашкин, Оксана Жданова, Екатерина Шоломицкая
О фильме:
Состоятельный жених, безупречные манеры, красивые ухаживания, пышная свадьба… Казалось бы, предел мечтаний многих девушек, не говоря уже о 17-летней воспитаннице детского дома Наташе. Но что скрывается за фасадом красивой жизни? Обнаружив дневник своей предшественницы, погибшей при странных обстоятельствах первой супруги бизнесмена и политика Леонида Мазова, Наташа понимает: бесследно исчезнуть – её единственный шанс сохранить жизнь. И девушка инсценирует собственную смерть. Однако спустя 7 лет прошлое находит её.....

Страна: Украина
Студия: "FILM.UA Group"
Продолжительность: 12 x ~ 00:45:00
Перевод: Не требуется
Файл
Формат: AVI
Качество: WEB-DLRip
Видео: XviD build 73, 688x384 (16:9), 25.000 fps, ~ 1050 Kbps (~ 0.155 bit/pixel)
Звук: 48.0 kHz, MP3, 2/0 ch, 128 kbps
Субтитры: нет
General
Complete name : Zabudj.i.Vspomni.2016.XviD.WEB-DLRip.by.GeneralFilmseriya01.avi
Format : AVI
Format/Info : Audio Video Interleave
File size : 371 MiB
Duration : 44mn 18s
Overall bit rate : 1 170 Kbps
Writing application : VirtualDubMod 1.5.10.3 | www.virtualdub-fr.org || (build 2550/release)
Writing library : VirtualDubMod build 2550/release
Video
ID : 0
Format : MPEG-4 Visual
Format profile : Advanced Simple@L5
Format settings, BVOP : 1
Format settings, QPel : No
Format settings, GMC : No warppoints
Format settings, Matrix : Custom
Codec ID : XVID
Codec ID/Hint : XviD
Duration : 44mn 18s
Bit rate : 1 032 Kbps
Width : 688 pixels
Height : 384 pixels
Display aspect ratio : 16:9
Frame rate : 25.000 fps
Color space : YUV
Chroma subsampling : 4:2:0
Bit depth : 8 bits
Scan type : Progressive
Compression mode : Lossy
Bits/(Pixel*Frame) : 0.156
Stream size : 327 MiB (88%)
Writing library : XviD 73
Audio
ID : 1
Format : MPEG Audio
Format version : Version 1
Format profile : Layer 3
Codec ID : 55
Codec ID/Hint : MP3
Duration : 44mn 18s
Bit rate mode : Constant
Bit rate : 128 Kbps
Channel(s) : 2 channels
Sampling rate : 48.0 KHz
Compression mode : Lossy
Stream size : 40.6 MiB (11%)
Alignment : Aligned on interleaves
Interleave, duration : 40 ms (1.00 video frame)
Interleave, preload duratio : 504 ms
Writing library : LAME3.99r
Encoding settings : -m s -V 4 -q 0 -lowpass 17 -b 128




Релиз от:



   Похожие торренты   Торрент   Размер 
В этой теме нет новых непрочитанных сообщений. Забудь и вспомни [01-04, 08-12 из 12] (2016) WEB-DLRip от Files-x

51 | 56

5.26 ГБ

В этой теме нет новых непрочитанных сообщений. Забудь и вспомни [01-12 из 12] (2016) WEB-DLRip от Files-x

414 | 235

7.02 ГБ

В этой теме нет новых непрочитанных сообщений. Забудь и вспомни [01-02 из 12] HDTVRip от GeneralFilm

59 | 43

2.46 ГБ

В этой теме нет новых непрочитанных сообщений. Забудь и вспомни [01-02 из 12] HDTV 1080i от GeneralFilm

35 | 35

8.95 ГБ

В этой теме нет новых непрочитанных сообщений. Забудь и вспомни [01 из 12] (2016) DVB от Files-x

1 | 0

2.48 ГБ

В этой теме нет новых непрочитанных сообщений. Забудь и вспомни [01-12 из 12] (2016) WEB-DL 720p

116 | 42

6.17 ГБ

В этой теме нет новых непрочитанных сообщений. Забудь и вспомни [01 из 12] (2016) DVB от Files-x

8 | 8

7.53 ГБ




Вы не можете начинать темы
Вы не можете отвечать на сообщения
Вы не можете редактировать свои сообщения
Вы не можете удалять свои сообщения
Вы не можете добавлять вложения

Перейти:  
Для Мосгорсуда, Роскомнадзора и рекламодателей: mosgorsud-torrent[собачка]yandex.ru
 Вход
ppkBB3cker v.2 © 2008-2014 @ PPK
[ Time : 0.031s | 14 Queries | GZIP : On ]

Торрент трекер RUTOR.IN, Не можете зайти на rutor.org? Какой новый адрес рутор? Какое зеркало рутор? Не работает rutor.org и зеркала? Тогда наш торрент специально для вас. Rutor.in неофициальное зеркало rutor. В случае если у Вас заблокирован rutor или вдруг Вы не можете на него зайти, то Вы без труда сможете скачать бесплатно и без рекламы последние новинки кино, игр, сериалов и прочего у нас, на Rutor.in. Не нужно использовать прокси, чтобы зайти на рутор, достаточно воспользоваться нашим ресурсом. Все новые фильмы, игры, сериалы, книги и музыка за 2013 и 2014 годы через торрент бесплатно. Скачивайте фильмы в хорошем качестве, игры для пк, xbox, playstation без регистрации. У нас вы найдете новые Зарубежные сериалы и Русские сериалы 2013, 2014, 2015 годов. Оставайтесь с нами, качайте любимые фильмы, игры, сериалы, книги и музыку.