img image001 image001 image001 image001 image001 image001 image001 image001 image001 image001 image001 image001 image001 image001 image001

Planets Sun Sun Sun
Статистика раздачи
Автор: Nickolas3434 | Размер: 14.34 ГБ | Добавлен: 18 окт 2016
Раздают: 69    Качают: 1
Скачать торрент
Скачать торрент
Описание торрента

СообщениеДобавлено: 18 окт 2016 


Информация о фильме
Название: Ликвидация
Год выхода: 2007
Жанр: детектив, военный
Режиссер: Сергей Урсуляк
В ролях: Владимир Машков, Михаил Пореченков, Владимир Меньшов, Сергей Маковецкий, Светлана Крючкова, Юрий Лахин, Александр Сирин, Константин Лавроненко, Константин Желдин, Полина Агуреева, Лика Нифонтова, Ксения Раппопорт, Диана Малая, Виктор Смирнов, Фёдор Добронравов, Борис Каморзин, Александр Голубев, Виктор Супрун, Андрей Бронников, Сергей Угрюмов, Алексей Кирющенко, Александр Семчев, Максим Дрозд, Николай Спиридонов, Олег Басилашвили, Юрий Авшаров, Олег Кассин, Валерий Трошин, Беата Маковская, Сергей Рубеко, Виктор Соловьёв, Геннадий Чулков, Пётр Меркурьев, Владимир Юматов, Станислав Стрелков, Алексей Жиров, Александр Матросов, Сергей Неудачин, Евгений Куршинский, Виктор Тереля, Роман Крюков, Станислав Лесной, Вячеслав Молоков, Олег Семисынов, Виктор Лысенко, Александр Ковалёв, Олег Кулаев, Константин Балакирев, Тимофей Трибунцев, Артём Осипов, Кирилл Кяро, Александр Чернявский (II), Александр Карпиловский, Наталья Рожкова, Богдан Бенюк, Григорий Данцигер, Владимир Михайловский, Александр Карамнов, Святослав Чирков, Наталья Карпунина, Виктор Пасечник, Павел Ворожцов, Игорь Ларин (II), Альберт Каспарянц, Всеволод Кабанов, Андрей Щенников, Валентин Козачков, Андрей Шибаршин, Юрий Мазихин, Валерий Легин
О фильме:
Послевоенная Одесса, разгул преступности. В городе орудует банда бывших диверсантов во главе с загадочным Академиком, которого не знают даже свои. Бандиты грабят военные склады и пытаются переправить продовольствие, обмундирование и оружие бандеровцам. В это время недовольный Жуковым Сталин назначает его командующим Одесским округом. Маршал всеми силами пытается навести в городе порядок. На борьбу с бандитами посланы все силы, особенно старается начальник уголовного розыска Давид Гоцман. В ходе расследования выясняется, что и в милиции, и в штабе командования у бандитов свои люди, в частности, сам Академик. Жуков и Гоцман прибегают к разным методам, чтобы выйти на банду. В конце концов Гоцман осуществляет идею внедрить в ряды бандитов своего человека и приманкой вынудить их к решительным действиям, чтобы всех взять и выйти на Академика.
Страна: Россия,ЗАО "Централ Партнершип" студия "Дед Мороз"
Продолжительность: 00:44:00 серия
Перевод: не требуется
Файл
Кодек: x264
Качество: HDTVRip-AVC
Видео: MPEG-4 AVC, 1024x576, 25fps, 2750 Кбит/сек
Звук: AC3, 2 ch, 256 Kbps

raw [info]: 1024x584p 1:1 @ 25/1 fps (cfr)
x264 [info]: using SAR=1/1
x264 [info]: using cpu capabilities: MMX2 SSE2Fast SSSE3 SSE4.2 AVX
x264 [info]: profile High, level 4.1
x264 [info]: frame I:471 Avg QP:14.75 size: 83753
x264 [info]: frame P:22593 Avg QP:18.66 size: 26224
x264 [info]: frame B:45318 Avg QP:22.75 size: 6788
==============================================================================
Общее
Уникальный идентификатор : 238792836934323751796937195839930188406 (0xB3A5D3D811A12C1583575B8CC9534276)
Полное имя : R:МОИ РИПЫЛиквидация_2007-HDTVRip-AVCЛиквидация-1.mkv
Формат : Matroska
Версия формата : Version 2
Размер файла : 980 Мбайт
Продолжительность : 45 м.
Общий поток : 3006 Кбит/сек
Дата кодирования : UTC 2016-10-02 21:05:40
Программа кодирования : mkvmerge v5.8.0 ('No Sleep / Pillow') built on Sep 2 2012 15:37:04
Библиотека кодирования : libebml v1.2.3 + libmatroska v1.3.0
Видео
Идентификатор : 1
Формат : AVC
Формат/Информация : Advanced Video Codec
Профиль формата : High@L4.1
Параметр CABAC формата : Да
Параметр ReFrames формата : 13 кадров
Идентификатор кодека : V_MPEG4/ISO/AVC
Продолжительность : 45 м.
Битрейт : 2750 Кбит/сек
Ширина : 1024 пикселя
Высота : 584 пикселя
Соотношение сторон : 16:9
Режим частоты кадров : Постоянный
Частота кадров : 25,000 кадров/сек
Цветовое пространство : YUV
Субдискретизация насыщенности : 4:2:0
Битовая глубина : 8 бит
Тип развёртки : Прогрессивная
Бит/(Пиксели*Кадры) : 0.184
Размер потока : 877 Мбайт (89%)
Библиотека кодирования : x264 core 148 r2638 7599210
Настройки программы : cabac=1 / ref=13 / deblock=1:-2:-2 / analyse=0x3:0x113 / me=umh / subme=10 / psy=1 / psy_rd=1.05:0.15 / mixed_ref=1 / me_range=32 / chroma_me=1 / trellis=2 / 8x8dct=1 / cqm=0 / deadzone=21,11 / fast_pskip=0 / chroma_qp_offset=-3 / threads=12 / lookahead_threads=2 / sliced_threads=0 / nr=0 / decimate=0 / interlaced=0 / bluray_compat=0 / constrained_intra=0 / bframes=8 / b_pyramid=2 / b_adapt=2 / b_bias=0 / direct=3 / weightb=1 / open_gop=0 / weightp=2 / keyint=250 / keyint_min=25 / scenecut=40 / intra_refresh=0 / rc_lookahead=60 / rc=2pass / mbtree=1 / bitrate=2750 / ratetol=1.0 / qcomp=0.65 / qpmin=0 / qpmax=39 / qpstep=4 / cplxblur=20.0 / qblur=0.5 / ip_ratio=1.40 / aq=1:1.00
Язык : English
Default : Да
Forced : Нет
Цветовой диапазон : Limited
Основные цвета : BT.709
Характеристики трансфера : BT.709
Коэффициенты матрицы : BT.709
Аудио
Идентификатор : 2
Формат : AC-3
Формат/Информация : Audio Coding 3
Расширение режима : CM (complete main)
Параметр Endianness формата : Big
Идентификатор кодека : A_AC3
Продолжительность : 45 м.
Вид битрейта : Постоянный
Битрейт : 256 Кбит/сек
Каналы : 2 канала
Расположение каналов : Front: L R
Частота : 48,0 КГц
Метод сжатия : С потерями
Задержка видео : 24 мс.
Размер потока : 83,5 Мбайт (9%)
Язык : Russian
Default : Да
Forced : Нет

Релиз от:
Автор релиза:



   Похожие торренты   Торрент   Размер 
В этой теме нет новых непрочитанных сообщений. Ликвидация [01-14 из 14] (2007) HDTVRip 720p от MediaClub

1471 | 310

21.76 ГБ

В этой теме нет новых непрочитанных сообщений. Ликвидация [01-14 из 14] (2007) 4xDVD9

1052 | 594

27.39 ГБ

В этой теме нет новых непрочитанных сообщений. Ликвидация [01-14 из 14] (2007) DVDRip

5504 | 793

5.48 ГБ

В этой теме нет новых непрочитанных сообщений. Ликвидация [01-14 из 14] (2007) DVDRip

2680 | 406

8.27 ГБ

В этой теме нет новых непрочитанных сообщений. Ликвидация [01-14 из 14] (2007) 5xDVD5

143 | 19

21.04 ГБ

В этой теме нет новых непрочитанных сообщений. Ликвидация [01-14 из 14] (2007) DVDRip

740 | 245

11.92 ГБ

В этой теме нет новых непрочитанных сообщений. Ликвидация [01-14 из 14] (2007) DVDRip от -=HD-NET=-

764 | 252

8.21 ГБ




Вы не можете начинать темы
Вы не можете отвечать на сообщения
Вы не можете редактировать свои сообщения
Вы не можете удалять свои сообщения
Вы не можете добавлять вложения

Перейти:  
Для Мосгорсуда, Роскомнадзора и рекламодателей: mosgorsud-torrent[собачка]yandex.ru
 Вход
ppkBB3cker v.2 © 2008-2014 @ PPK
[ Time : 0.032s | 13 Queries | GZIP : Off ]
CGP output time : 0.023s | 5 Queries | GZIP : Off

Торрент трекер RUTOR.IN, Не можете зайти на rutor.org? Какой новый адрес рутор? Какое зеркало рутор? Не работает rutor.org и зеркала? Тогда наш торрент специально для вас. Rutor.in неофициальное зеркало rutor. В случае если у Вас заблокирован rutor или вдруг Вы не можете на него зайти, то Вы без труда сможете скачать бесплатно и без рекламы последние новинки кино, игр, сериалов и прочего у нас, на Rutor.in. Не нужно использовать прокси, чтобы зайти на рутор, достаточно воспользоваться нашим ресурсом. Все новые фильмы, игры, сериалы, книги и музыка за 2013 и 2014 годы через торрент бесплатно. Скачивайте фильмы в хорошем качестве, игры для пк, xbox, playstation без регистрации. У нас вы найдете новые Зарубежные сериалы и Русские сериалы 2013, 2014, 2015 годов. Оставайтесь с нами, качайте любимые фильмы, игры, сериалы, книги и музыку.