img image001 image001 image001 image001 image001 image001 image001 image001 image001 image001 image001 image001 image001 image001 image001

Planets Sun Sun Sun
Статистика раздачи
Автор: Nickolas3434 | Размер: 4.03 ГБ | Добавлен: 17 окт 2016
Раздают: 0    Качают: 3
Скачать торрент
Скачать торрент
Описание торрента

СообщениеДобавлено: 17 окт 2016 

Название: Крестная мать 2
Оригинальное название: Vendetta: Secrets of a Mafia Bride
Год выхода: 1990
Страна: Италия, США
Студия: Reteitalia, Titanus, Tribune Entertainment
Продолжительность: 01:40:50 + 01:26:35 + 01:25:25
Жанр: боевик, триллер, драма, криминал, ...
Режиссер: Стюарт Марголин
В ролях: Кэрол Олт, Эрик Робертс, Берт Янг, Ник Манкузо, Томас Калабро, Марчи Лидс, Энтони Де Сандо, Эва Гримальди, Джанни Наззаро, Серена Гранди, Виктор Арго, Эли Уоллаш, Билли Барти, Антонио Сабато, Нина Солдано, Эва Кобо, Мишель Откин, Джастин Луис, Мигель Фернандес, Лиза Джейкоб, Катерина Боратто, Илай Уоллак, ...
Перевод: Профессиональный (двухголосый, закадровый) ?
О фильме: История прекрасной женщины, созданной для любви, но вынужденной стать убийцей. Во время войны между мафиозными кланами на глазах у Нэнси по ошибке убивают отца. Спустя годы при таких же обстоятельствах погибает ее мать. Смыслом жизни для Нэнси становится месть…

Кодек: DivX
Качество: SATRip
Видео: 640x480, 1955 kbps, 25 fps
Аудио #1: AC-3, 2 ch, 192 kbps (Rus) - DVO
Аудио #2: MP3, 2 ch, 128 kbps (Eng)
Субтитры: нет
filatova1989 любезно предоставила видео, которое лучше всех имеющихся из доступных.
Звук сюда подгонялся с раздачи Stells911, у него можно скачать и VHS продолжение.
Пояснение от erika97 :
"Названий у фильма предостаточно, чтоб прояснить ситуацию приведу все:
1 часть, серии 1-6 (1991):
... Vendetta: Secrets of a Mafia Bride
... A Family Matter
... Bride of Violence
... Donna d'onore
2 часть, серии 7-12 (1993):
... Vendetta II: The New Mafia
... A Family Matter 2
... Bride of Violence 2
... Donna d'onore 2
По российскому телевиденью фильм шел под названием "Невеста Насилия",
он состоит из 2-х частей, 1991 и 1993 года соответственно.
В каждой части по 6 серий, т.е. всего их 12.
Некоторая путаница с названием началась, когда в 1999 году компания "Союз-Видео"
выпустила фильм на VHS под названием:
"Крестная мать 2" (серии 1-6) и
"Крестная мать 3" (серии 7-12)
Название было выбрано по причине коммерческих соображений
Первым вышел фильм "Крестная мать" (1997) режиссера Дэвида Грина (David Greene) с Настасьей Кински в главной роли, а "Невесту Насилия" решили выпустить под видом мнимого продолжения к первому фильму
Хотя всем понятно что первая "Крестная мать" (1997) с "Крестной матерью" 2 и 3 (читай "Невеста Насилия" 1 и 2 1991-1993) не связаны ВООБЩЕ и трилогией не являются! Это разные фильмы!"

Общее
Полное имя : Vendetta Secrets of a Mafia Bride E01 S01 1990 SATRip.avi
Формат : AVI
Формат/Информация : Audio Video Interleave
Размер файла : 1,61 Гбайт
Продолжительность : 1 ч. 40 м.
Общий поток : 2290 Кбит/сек
Программа кодирования : VirtualDubMod 1.5.10.2 (build 2540/release)
Библиотека кодирования : VirtualDubMod build 2540/release
Видео
Идентификатор : 0
Формат : MPEG-4 Visual
Профиль формата : Simple@L1
Параметр BVOP формата : Нет
Параметр QPel формата : Нет
Параметр GMC формата : Без точки перехода
Параметр матрицы формата : Default (H.263)
Идентификатор кодека : DX50
Идентификатор кодека/Подсказка : DivX 5
Продолжительность : 1 ч. 40 м.
Битрейт : 1955 Кбит/сек
Ширина : 640 пикселей
Высота : 480 пикселей
Соотношение сторон : 4:3
Частота кадров : 25,000 кадров/сек
Цветовое пространство : YUV
Субдискретизация насыщенности : 4:2:0
Битовая глубина : 8 бит
Тип развёртки : Прогрессивная
Метод сжатия : С потерями
Бит/(Пиксели*Кадры) : 0.255
Размер потока : 1,38 Гбайт (85%)
Библиотека кодирования : FFmpeg0.4.8b4692
Аудио #1
Идентификатор : 1
Формат : AC-3
Формат/Информация : Audio Coding 3
Расширение режима : CM (complete main)
Параметр Endianness формата : Big
Идентификатор кодека : 2000
Продолжительность : 1 ч. 40 м.
Вид битрейта : Постоянный
Битрейт : 192 Кбит/сек
Каналы : 2 канала
Расположение каналов : Front: L R
Частота : 48,0 КГц
Частота кадров : 31,250 кадров/сек (1536 spf)
Метод сжатия : С потерями
Размер потока : 139 Мбайт (8%)
Выравнивание : Разделение по промежуткам
Продолжительность промежутка : 40 мс. (1,00 видеокадр)
Время предзагрузки промежутка : 500 мс.
Заголовок : DVO
Аудио #2
Идентификатор : 2
Формат : MPEG Audio
Версия формата : Version 1
Профиль формата : Layer 3
Режим : Dual mono
Идентификатор кодека : 55
Идентификатор кодека/Подсказка : MP3
Продолжительность : 1 ч. 40 м.
Вид битрейта : Постоянный
Битрейт : 128 Кбит/сек
Каналы : 2 канала
Частота : 48,0 КГц
Метод сжатия : С потерями
Размер потока : 92,4 Мбайт (6%)
Выравнивание : Разделение по промежуткам
Продолжительность промежутка : 40 мс. (1,00 видеокадр)
Время предзагрузки промежутка : 500 мс.





   Похожие торренты   Торрент   Размер 
В этой теме нет новых непрочитанных сообщений. Крестная Мать / Bella Mafia (1997) DVDRip

86 | 9

1.37 ГБ

В этой теме нет новых непрочитанных сообщений. Крестная мать / Bella Mafia (1997) DVDRip-AVC | P, P2, A

18 | 1

4.97 ГБ

В этой теме нет новых непрочитанных сообщений. Крёстная мать / Bella mafia (1997) DVDRip от Leon-masl

110 | 14

2.19 ГБ

В этой теме нет новых непрочитанных сообщений. Русские сенсации. Крестная мать (2010) SATRip

0 | 3

400.72 МБ

В этой теме нет новых непрочитанных сообщений. Mafia 2 - Jimmy's Vendetta (DLC) (2010) PC

105 | 47

362.07 МБ

В этой теме нет новых непрочитанных сообщений. Мать урагана / Мацi ўрагану (1990) SATRip от AND03AND

5 | 5

1.42 ГБ

В этой теме нет новых непрочитанных сообщений. Мать урагана / Мацi ўрагану (1990) SATRip от AND03AND

8 | 3

1.51 ГБ




Вы не можете начинать темы
Вы не можете отвечать на сообщения
Вы не можете редактировать свои сообщения
Вы не можете удалять свои сообщения
Вы не можете добавлять вложения

Перейти:  
Для Мосгорсуда, Роскомнадзора и рекламодателей: mosgorsud-torrent[собачка]yandex.ru
 Вход
ppkBB3cker v.2 © 2008-2014 @ PPK
[ Time : 0.055s | 16 Queries | GZIP : Off ]

cron