img image001 image001 image001 image001 image001 image001 image001 image001 image001 image001 image001 image001 image001 image001 image001

Planets Sun Sun Sun
Статистика раздачи
Автор: Nickolas3434 | Размер: 16.49 ГБ | Добавлен: 19 окт 2016
Раздают: 45    Качают: 13
Скачать торрент
Скачать торрент
Описание торрента

СообщениеДобавлено: 19 окт 2016 


11.22.63 / 11.22.63
Страна: США
Производство: Warner Bros. Television, Carpenter B, Bad Robot
Год выпуска: 2016
Сезон: 1
Жанр: фантастика, триллер, драма, детектив
Продолжительность: 1х ~01:20:45, 7х ~00:58:00
Режиссеры: Джеймс Стронг, Фред Туа, Джон Дэвид Коулз
Авторы сценария: Бриджет Карпентер, Стивен Кинг, Куинтон Пиплз
В ролях: Джеймс Франко, Сара Гадон, Джордж МакКэй, Крис Купер, Черри Джонс, Даниэль Уэббер, Кевин Дж. О’Коннор, Люси Фрай, Джонатан Койн
Описание: Учитель английского языка отправляется в прошлое, чтобы предотвратить убийство Кеннеди, но в результате сильно привязывается к той жизни, которую он сделал в ушедшей эпохе...

Перевод: Профессиональный (многоголосый, закадровый) | LostFilm
Субтитры: русские, английские

Качество: BDRip 720p
Формат: МКV
Видео кодек: AVC
Аудио кодек: АС3
Видео: 1280x640 (2.000), 23.976 fps, MPEG-4 AVC ~4 860 kbps avg
Аудио №1: 48.0 kHz, AC3 Dolby Digital, 3/2 (L,C,R,l,r) + LFE ch, ~384 kbps | RUS
Аудио №2: 48.0 kHz, AC3 Dolby Digital, 3/2 (L,C,R,l,r) + LFE ch, ~384 kbps | ENG
Формат субтитров: UTF-8 Plain Text
Дата премьеры (мир): 15 февраля 2016
Дата премьеры (РФ): 11 апреля 2016

Релиз от: мехвод
General
Format : Matroska
Format version : Version 4 / Version 2
File size : 2.32 GiB
Duration : 58 min
Overall bit rate : 5 630 kb/s
Encoded date : UTC 2016-10-18 09:07:11
Writing application : mkvmerge v7.6.0 ('Garden of Dreams') 32bit built on Feb 8 2015 12:51:39
Writing library : libebml v1.3.1 + libmatroska v1.4.2
Video
ID : 1
Format : AVC
Format/Info : Advanced Video Codec
Format profile : High@L4.1
Format settings, CABAC : Yes
Format settings, ReFrames : 5 frames
Codec ID : V_MPEG4/ISO/AVC
Duration : 58 min
Bit rate : 4 860 kb/s
Width : 1 280 pixels
Height : 640 pixels
Display aspect ratio : 2.000
Frame rate mode : Constant
Frame rate : 23.976 (24000/1001) FPS
Color space : YUV
Chroma subsampling : 4:2:0
Bit depth : 8 bits
Scan type : Progressive
Bits/(Pixel*Frame) : 0.247
Stream size : 2.00 GiB (86%)
Language : English
Default : Yes
Forced : No
Audio #1
ID : 2
Format : AC-3
Format/Info : Audio Coding 3
Mode extension : CM (complete main)
Format settings, Endianness : Big
Codec ID : A_AC3
Duration : 58 min
Bit rate mode : Constant
Bit rate : 384 kb/s
Channel(s) : 6 channels
Channel positions : Front: L C R, Side: L R, LFE
Sampling rate : 48.0 kHz
Frame rate : 31.250 FPS (1536 spf)
Compression mode : Lossy
Delay relative to video : 24 ms
Stream size : 162 MiB (7%)
Title : LostFilm
Language : Russian
Default : Yes
Forced : No
Audio #2
ID : 3
Format : AC-3
Format/Info : Audio Coding 3
Mode extension : CM (complete main)
Format settings, Endianness : Big
Codec ID : A_AC3
Duration : 58 min
Bit rate mode : Constant
Bit rate : 384 kb/s
Channel(s) : 6 channels
Channel positions : Front: L C R, Side: L R, LFE
Sampling rate : 48.0 kHz
Frame rate : 31.250 FPS (1536 spf)
Compression mode : Lossy
Delay relative to video : 24 ms
Stream size : 162 MiB (7%)
Title : Orig
Language : English
Default : No
Forced : No
Text #1
ID : 4
Format : UTF-8
Codec ID : S_TEXT/UTF8
Codec ID/Info : UTF-8 Plain Text
Duration : 57 min
Bit rate : 65 b/s
Count of elements : 603
Stream size : 27.8 KiB (0%)
Title : Rus
Language : Russian
Default : Yes
Forced : No
Text #2
ID : 5
Format : UTF-8
Codec ID : S_TEXT/UTF8
Codec ID/Info : UTF-8 Plain Text
Duration : 58 min
Bit rate : 41 b/s
Count of elements : 652
Stream size : 17.9 KiB (0%)
Title : Eng
Language : English
Default : No
Forced : No



   Похожие торренты   Торрент   Размер 
В этой теме нет новых непрочитанных сообщений. Война и Мир / War and Peace [01х01-04 из 06] (2016) BDRip 720p | LostFilm

133 | 96

22.87 ГБ

В этой теме нет новых непрочитанных сообщений. Проповедник / Preacher [01x01 из 10] (2016) BDRip 720p от qqss44 | LostFilm

2 | 5

6.76 ГБ

В этой теме нет новых непрочитанных сообщений. В поле зрения / Person of Interest [S05] (2016) BDRip 720p от qqss44 | LostFilm

0 | 0

28.88 ГБ

В этой теме нет новых непрочитанных сообщений. Пространство / The Expanse [S01] (2015-2016) BDRip 720p | Alexfilm, Jaskier, BaibaKo, LostFilm, OMSKBIRD records, HamsterStudio

8 | 5

45.29 ГБ

В этой теме нет новых непрочитанных сообщений. Сотня / The 100 [03х01 из 16] (2016) WEB-DL 720p | LostFilm

869 | 74

1.4 ГБ

В этой теме нет новых непрочитанных сообщений. Крах / The Fall [S03] (2016) WEB-DL 720p | LostFilm

17 | 4

12.02 ГБ

В этой теме нет новых непрочитанных сообщений. Во все тяжкие / Breaking Bad [05x01-15 из 16] (2013) WEB-DLRip 720p от LostFilm & Scarabey | LostFilm

25 | 21

23.7 ГБ




Вы не можете начинать темы
Вы не можете отвечать на сообщения
Вы не можете редактировать свои сообщения
Вы не можете удалять свои сообщения
Вы не можете добавлять вложения

Перейти:  
Для Мосгорсуда, Роскомнадзора и рекламодателей: mosgorsud-torrent[собачка]yandex.ru
 Вход
ppkBB3cker v.2 © 2008-2014 @ PPK
[ Time : 0.056s | 16 Queries | GZIP : Off ]

cron