img image001 image001 image001 image001 image001 image001 image001 image001 image001 image001 image001 image001 image001 image001 image001

Planets Sun Sun Sun
Статистика раздачи
Автор: PriZraK | Размер: 4.45 ГБ | Добавлен: 22 окт 2016
Раздают: 7    Качают: 5
Скачать торрент
Скачать торрент
Описание торрента

СообщениеДобавлено: 22 окт 2016 


Информация о фильме
Название: Старшеклассники (1-й сезон)
Год выхода: 2006
Жанр: Молодёжный, комедия, драма, мелодрама
Режиссёр: Ядвига Закржевская
В ролях: Наталья Бахматова, Вадим Козлов, Иван Жагоров, Марина Забелина, Юлия Кудояр, Алексей Щуров, Андрей Пынзару, Жанна Немченко, Алина Кушнерова, Евгений Семов, Елена Слатина, Алексей Симонов, Валентина Егоренкова, Алексей Федькин
О фильме: Герои сериала – одиннадцатиклассники одной петербургской школы (одной российской школы из одного российского города). В сериале четыре главных персонажа – Иван Полесов, Алена Соболевская, Дима Чижов, по прозвищу "Чиж" и Лиза Неустроева. У каждого из них – свои интересы, планы на будущее, проблемы. Они уже не дети, но еще и не взрослые. До старта в большую жизнь им остается совсем чуть-чуть. Их окружают одноклассники, учителя, друзья, родители. Отношения главных героев между собой и с внешним миром, и составляет основу сериала. Уникальность проекта состоит в том, что роли учащихся, в том числе и главных героев, играют не профессиональные артисты, а обычные петербургские школьники или недавние выпускники. Лишь образы взрослых персонажей создают профессиональные актеры петербургских театров.

Выпущено: Россия, ТРК "Петербург"
Продолжительность: ~ 00:26:00 / Серия
Перевод: Не требуется
Файл
Качество: WEB-DLRip
Видео: XviD, 704x432 (16:10), ~ 1800 Кбит/с, 25 кадр/с, 0.233 bit/pixel
Аудио: Русский, MP3, 48000 Гц, 128 Кбит/с, 2 канала (Стерео)

Внимание! Раздача ведётся путём добавления новых серий; при каждом добавлении создётся новый торрент. Чтобы начать докачку новой серии, пользователям необходимо сделать следующее:
(1) остановить скачивание,
(2) удалить старый торрент у себя из клиента (старые серии удалять не надо),
(3) скачать новый торрент и запустить его у себя в клиенте вместо старого, при этом указать клиенту путь в старую папку куда и должно происходить скачивание новых серий.
Ваш клиент при этом должен произвести хеширование (проверку) старой папки (если не производит сам - помогите ему сделать это), и будет докачивать только те серии которых у вас ещё нет. Старые серии при этом не удаляются, а продолжают раздаваться!
Eсли вы уже удалили старые серии, то предотвратить повторную закачку старых серий можно, отжав галочку в соответсвующих местах при запуске нового торрента. По возможности, желательно не удалять старые серии как можно дольше чтобы релизёр не столько продолжал раздавать старые серии, а смог сконцентрироваться на новых.
General
Complete name : Starsheklassniki.s01.e02.WEB-DLRip.avi
Format : AVI
Format/Info : Audio Video Interleave
File size : 350 MiB
Duration : 25mn 40s
Overall bit rate : 1 908 Kbps
Writing application : VirtualDubMod 1.5.10.3 | www.virtualdub-fr.org || (build 2550/release)
Writing library : VirtualDubMod build 2550/release
Video
ID : 0
Format : MPEG-4 Visual
Format profile : Advanced Simple@L5
Format settings, BVOP : 1
Format settings, QPel : No
Format settings, GMC : No warppoints
Format settings, Matrix : Custom
Codec ID : XVID
Codec ID/Hint : XviD
Duration : 25mn 40s
Bit rate : 1 770 Kbps
Width : 704 pixels
Height : 432 pixels
Display aspect ratio : 16:10
Frame rate : 25.000 fps
Color space : YUV
Chroma subsampling : 4:2:0
Bit depth : 8 bits
Scan type : Progressive
Compression mode : Lossy
Bits/(Pixel*Frame) : 0.233
Stream size : 325 MiB (93%)
Writing library : XviD 73
Audio
ID : 1
Format : MPEG Audio
Format version : Version 1
Format profile : Layer 3
Codec ID : 55
Codec ID/Hint : MP3
Duration : 25mn 40s
Bit rate mode : Constant
Bit rate : 128 Kbps
Channel(s) : 2 channels
Sampling rate : 48.0 KHz
Compression mode : Lossy
Stream size : 23.5 MiB (7%)
Alignment : Aligned on interleaves
Interleave, duration : 40 ms (1.00 video frame)
Interleave, preload duration : 504 ms
Writing library : LAME3.99r
Encoding settings : -m s -V 4 -q 0 -lowpass 17 -b 128

Автор рипа - ivandubskoj



   Похожие торренты   Торрент   Размер 
В этой теме нет новых непрочитанных сообщений. Старшеклассники [04х01-14 из 52] (2009) SATRip от ivandubskoj

0 | 10

6.18 ГБ

В этой теме нет новых непрочитанных сообщений. Старшеклассники [04х01-11 из 52] (2009) SATRip от ivandubskoj

2 | 7

4.84 ГБ

В этой теме нет новых непрочитанных сообщений. Старшеклассники [04х01-40 из 52] (2009) SATRip от ivandubskoj

4 | 8

17.8 ГБ

В этой теме нет новых непрочитанных сообщений. Старшеклассники [04х01-22 из 52] (2009) SATRip от ivandubskoj

5 | 8

9.74 ГБ

В этой теме нет новых непрочитанных сообщений. Старшеклассники [04х01-33 из 52] (2009) SATRip от ivandubskoj

0 | 16

14.24 ГБ

В этой теме нет новых непрочитанных сообщений. Старшеклассники [04х01-52 из 52] (2009) SATRip от ivandubskoj

0 | 81

23.14 ГБ

В этой теме нет новых непрочитанных сообщений. Старшеклассники [04х01-07 из 52] (2009) SATRip от ivandubskoj

3 | 2

3.06 ГБ




Вы не можете начинать темы
Вы не можете отвечать на сообщения
Вы не можете редактировать свои сообщения
Вы не можете удалять свои сообщения
Вы не можете добавлять вложения

Перейти:  
Для Мосгорсуда, Роскомнадзора и рекламодателей: mosgorsud-torrent[собачка]yandex.ru
 Вход
ppkBB3cker v.2 © 2008-2014 @ PPK
[ Time : 0.027s | 14 Queries | GZIP : Off ]

Торрент трекер RUTOR.IN, Не можете зайти на rutor.org? Какой новый адрес рутор? Какое зеркало рутор? Не работает rutor.org и зеркала? Тогда наш торрент специально для вас. Rutor.in неофициальное зеркало rutor. В случае если у Вас заблокирован rutor или вдруг Вы не можете на него зайти, то Вы без труда сможете скачать бесплатно и без рекламы последние новинки кино, игр, сериалов и прочего у нас, на Rutor.in. Не нужно использовать прокси, чтобы зайти на рутор, достаточно воспользоваться нашим ресурсом. Все новые фильмы, игры, сериалы, книги и музыка за 2013 и 2014 годы через торрент бесплатно. Скачивайте фильмы в хорошем качестве, игры для пк, xbox, playstation без регистрации. У нас вы найдете новые Зарубежные сериалы и Русские сериалы 2013, 2014, 2015 годов. Оставайтесь с нами, качайте любимые фильмы, игры, сериалы, книги и музыку.