img image001 image001 image001 image001 image001 image001 image001 image001 image001 image001 image001 image001 image001 image001 image001

Planets Sun Sun Sun
Статистика раздачи
Автор: PriZraK | Размер: 4.34 ГБ | Добавлен: 22 окт 2016
Раздают: 471    Качают: 272
Скачать торрент
Скачать торрент
Описание торрента

СообщениеДобавлено: 22 окт 2016 


Информация о фильме
Оригинальное название: Шакал
Год выпуска: 2016
Жанр: Детектив
Режиссер: Евгений Звездаков
В ролях: Андрей Смоляков, Марина Александрова, Екатерина Климова, Вадим Андреев, Алексей Бардуков, Павел Чинарёв, Александра Бортич, Сергей Белов, Юрий Ицков, Андрей Феськов, Юрий Чурсин, Юрий Тарасов, Сергей Жигунов, Ирина Старшенбаум, Сергей Юшкевич, Анна Котова, Даниэла Стоянович, Мария Андреева, Игорь Филиппов, Дмитрий Мазуров, Ксения Щербакова, Александр Дробитько, Саша Лебедева, Мария Козлова, Ирина Цывина, Дмитрий Гусев, Анастасия Стежко, Владимир Юматов, Анастасия Фурса, Филипп Гуревич, Луиза Мосендз, Елизавета Зарубина, Сергей Угрюмов, Надежда Маркина, Пётр Рыков, Сергей Колесников (II)
О фильме:
Начало 1970-х. Майор Черкасов и его команда расследуют новое дело. На этот раз речь идет об ограблениях. А это сфера отдела по борьбе с хищениями социалистической собственности (ОБХСС). Во время грабежей бандиты беспощадно убивают свидетелей. Ограбления организованы четко и продумано. И готовит их кто-то очень осведомленный. Руководство принимает решение объединить против "беспредельщиков" усилия двух ведомств московской милиции: МВД и ОБХСС.

Страна: Россия
Студия: Студия "Русский проект", "Красный квадрат"
Продолжительность: 8 x ~ 00:51:00
Перевод: Не требуется
Файл
Формат: AVI
Качество: HDTVRip
Видео: XviD build 73, 704x400 (16:9), 25.000 fps, ~ 1370 Kbps (~ 0.200 bit/pixel)
Звук: 48.0 kHz, MP3, 2/0 ch, 128 kbps
Субтитры: нет
General
Complete name : SHAKAL.2016.XviD.HDTVRip.GeneralFilmSerija.01.avi
Format : AVI
Format/Info : Audio Video Interleave
File size : 556 MiB
Duration : 51mn 46s
Overall bit rate : 1 501 Kbps
Writing application : VirtualDubMod 1.5.10.3 | www.virtualdub-fr.org || (build 2550/release)
Writing library : VirtualDubMod build 2550/release
Video
ID : 0
Format : MPEG-4 Visual
Format profile : Advanced Simple@L5
Format settings, BVOP : 1
Format settings, QPel : No
Format settings, GMC : No warppoints
Format settings, Matrix : Custom
Codec ID : XVID
Codec ID/Hint : XviD
Duration : 51mn 46s
Bit rate : 1 363 Kbps
Width : 704 pixels
Height : 400 pixels
Display aspect ratio : 16:9
Frame rate : 25.000 fps
Color space : YUV
Chroma subsampling : 4:2:0
Bit depth : 8 bits
Scan type : Progressive
Compression mode : Lossy
Bits/(Pixel*Frame) : 0.194
Stream size : 505 MiB (91%)
Writing library : XviD 73
Audio
ID : 1
Format : MPEG Audio
Format version : Version 1
Format profile : Layer 3
Codec ID : 55
Codec ID/Hint : MP3
Duration : 51mn 46s
Bit rate mode : Constant
Bit rate : 128 Kbps
Channel(s) : 2 channels
Sampling rate : 48.0 KHz
Compression mode : Lossy
Stream size : 47.4 MiB (9%)
Alignment : Aligned on interleaves
Interleave, duration : 40 ms (1.00 video frame)
Interleave, preload duratio : 504 ms
Writing library : LAME3.99r
Encoding settings : -m s -V 4 -q 0 -lowpass 17 -b 128





Релиз от:



   Похожие торренты   Торрент   Размер 
В этой теме нет новых непрочитанных сообщений. Шакал [01-02 из 08] (2016) HDTVRip от GeneralFilm

215 | 36

2.85 ГБ

В этой теме нет новых непрочитанных сообщений. Шакал [01 из 08] (2016) HDTVRip 720p от GeneralFilm

18 | 22

5.27 ГБ

В этой теме нет новых непрочитанных сообщений. Шакал [01-02 из 08] (2016) HDTV 1080i от GeneralFilm

15 | 2

9.19 ГБ

В этой теме нет новых непрочитанных сообщений. Шакал [01-02 из 08] (2016) HDTVRip | КПК

22 | 1

465.3 МБ

В этой теме нет новых непрочитанных сообщений. Шакал [01 из 08] (2016) HDTVRip-AVC от Files-x

14 | 1

1.57 ГБ

В этой теме нет новых непрочитанных сообщений. Шакал [01-08 из 08] (2016) HDTVRip-AVC от New-Team

152 | 20

4.14 ГБ

В этой теме нет новых непрочитанных сообщений. Шакал [01-08 из 08] (2016) WEBRip

2700 | 883

4.55 ГБ




Вы не можете начинать темы
Вы не можете отвечать на сообщения
Вы не можете редактировать свои сообщения
Вы не можете удалять свои сообщения
Вы не можете добавлять вложения

Перейти:  
Для Мосгорсуда, Роскомнадзора и рекламодателей: mosgorsud-torrent[собачка]yandex.ru
 Вход
ppkBB3cker v.2 © 2008-2014 @ PPK
[ Time : 0.032s | 14 Queries | GZIP : Off ]

Торрент трекер RUTOR.IN, Не можете зайти на rutor.org? Какой новый адрес рутор? Какое зеркало рутор? Не работает rutor.org и зеркала? Тогда наш торрент специально для вас. Rutor.in неофициальное зеркало rutor. В случае если у Вас заблокирован rutor или вдруг Вы не можете на него зайти, то Вы без труда сможете скачать бесплатно и без рекламы последние новинки кино, игр, сериалов и прочего у нас, на Rutor.in. Не нужно использовать прокси, чтобы зайти на рутор, достаточно воспользоваться нашим ресурсом. Все новые фильмы, игры, сериалы, книги и музыка за 2013 и 2014 годы через торрент бесплатно. Скачивайте фильмы в хорошем качестве, игры для пк, xbox, playstation без регистрации. У нас вы найдете новые Зарубежные сериалы и Русские сериалы 2013, 2014, 2015 годов. Оставайтесь с нами, качайте любимые фильмы, игры, сериалы, книги и музыку.