img image001 image001 image001 image001 image001 image001 image001 image001 image001 image001 image001 image001 image001 image001 image001

Planets Sun Sun Sun
Статистика раздачи
Автор: PriZraK | Размер: 1.45 ГБ | Добавлен: 23 окт 2016, 20:30
Раздают: 89    Качают: 23
Скачать торрент
Скачать торрент
Описание торрента

СообщениеДобавлено: 23 окт 2016, 20:30 


Информация о фильме
Оригинальное название: Без права на ошибку
Год выпуска: 2016
Жанр: Мелодрамa, детектив
Режиссер: Александр Высоковский
В ролях: Илья Ермолов, Наталья Капитонова, Александра Ермакова, Влад Канопка, Игорь Сигов, Ольга Дятловская, Александр Бранкевич, Ирина Рыморова, Василий Козлов (II), Виктор Васильев (II), Зоя Антонова, Арсений Евстифеев, Виктория Бурчиц, Светлана Боровская, Сергей Широчин, Арсений Врагов
О фильме:
Провинциальный город. Друзья Антон и Олег борются за внимание одноклассницы Кати. Антон — сын богатого и влиятельного отца. В его жизни все определяют деньги, и парень привык с их помощью получать все, что захочет. Олег из бедной семьи, он полагается только на себя — золотой медалист и отличник, мечтает о научной карьере. Парни, при всем различии между ними, похожи внешне. Но Катя не отдает никому предпочтения: она понимает, что для Антона она лишь очередной трофей. А к застенчивому Олегу Катя относится по-дружески. Но все меняется, когда троица, после окончания школы приезжает в Москву поступать. Начинается взрослая жизнь, и теперь у каждого из них не будет права на ошибку.

Страна: Россия
Студия: ООО "Тесей Продакшн"
Продолжительность: 2 x ~ 01:31:00
Перевод: Не требуется
Файл
Формат: AVI
Качество: HDTVRip
Видео: XviD build 73, 656x368 (16:9), 25.000 fps, ~ 970 Kbps (~ 0.160 bit/pixel)
Звук: 48.0 kHz, MP3, 2/0 ch, 128 kbps
Субтитры: нет
General
Complete name : Bez.Prava.Na.Oshibku.2016.XviD.HDTVRip.GeneralFilmSerija.01.avi
Format : AVI
Format/Info : Audio Video Interleave
File size : 744 MiB
Duration : 1h 33mn
Overall bit rate : 1 108 Kbps
Writing application : VirtualDubMod 1.5.10.3 | www.virtualdub-fr.org || (build 2550/release)
Writing library : VirtualDubMod build 2550/release
Video
ID : 0
Format : MPEG-4 Visual
Format profile : Advanced Simple@L5
Format settings, BVOP : 1
Format settings, QPel : No
Format settings, GMC : No warppoints
Format settings, Matrix : Custom
Codec ID : XVID
Codec ID/Hint : XviD
Duration : 1h 33mn
Bit rate : 970 Kbps
Width : 656 pixels
Height : 368 pixels
Display aspect ratio : 16:9
Frame rate : 25.000 fps
Color space : YUV
Chroma subsampling : 4:2:0
Bit depth : 8 bits
Scan type : Progressive
Compression mode : Lossy
Bits/(Pixel*Frame) : 0.161
Stream size : 652 MiB (88%)
Writing library : XviD 73
Audio
ID : 1
Format : MPEG Audio
Format version : Version 1
Format profile : Layer 3
Codec ID : 55
Codec ID/Hint : MP3
Duration : 1h 33mn
Bit rate mode : Constant
Bit rate : 128 Kbps
Channel(s) : 2 channels
Sampling rate : 48.0 KHz
Compression mode : Lossy
Stream size : 86.0 MiB (12%)
Alignment : Aligned on interleaves
Interleave, duration : 40 ms (1.00 video frame)
Interleave, preload duratio : 504 ms
Writing library : LAME3.99r
Encoding settings : -m s -V 4 -q 0 -lowpass 17 -b 128


Релиз от:



   Похожие торренты   Торрент   Размер 
В этой теме нет новых непрочитанных сообщений. Без права на ошибку [01-02 из 02] (2016) HDTVRip-AVC от New-Team

62 | 15

2.15 ГБ

В этой теме нет новых непрочитанных сообщений. Без права на ошибку [01-02 из 02] (2016) HDTVRip от Files-x

482 | 65

2.73 ГБ

В этой теме нет новых непрочитанных сообщений. Без права на ошибку [01-02 из 02] (2016) HDTVRip-AVC от Files-x

95 | 25

2.89 ГБ

В этой теме нет новых непрочитанных сообщений. Без права на ошибку [01-02 из 02] (2016) HDTV 1080i от Files-x

249 | 42

9.82 ГБ

В этой теме нет новых непрочитанных сообщений. Без права на ошибку (1974) SATRip-AVC от ExKinoRay

46 | 12

939.02 МБ

В этой теме нет новых непрочитанных сообщений. Без права на ошибку [01-04 из 04] (2010) DVDRip-AVC | от Youtracker

251 | 13

2.91 ГБ

В этой теме нет новых непрочитанных сообщений. Без права на ошибку [01-04 из 04] (2010) DVD9 от Youtracker | R5 | лицензия

1 | 37

7.75 ГБ




Вы не можете начинать темы
Вы не можете отвечать на сообщения
Вы не можете редактировать свои сообщения
Вы не можете удалять свои сообщения
Вы не можете добавлять вложения

Перейти:  
Для Мосгорсуда, Роскомнадзора и рекламодателей: mosgorsud-torrent[собачка]yandex.ru
Настройки
ppkBB3cker v.2 © 2008-2014 @ PPK
[ Time : 0.019s | 16 Queries | GZIP : On ]
CGP [Extreme] output time : 0.00012s | 0 Queries | GZIP : On

Торрент трекер RUTOR.IN, Не можете зайти на rutor.org? Какой новый адрес рутор? Какое зеркало рутор? Не работает rutor.org и зеркала? Тогда наш торрент специально для вас. Rutor.in неофициальное зеркало rutor. В случае если у Вас заблокирован rutor или вдруг Вы не можете на него зайти, то Вы без труда сможете скачать бесплатно и без рекламы последние новинки кино, игр, сериалов и прочего у нас, на Rutor.in. Не нужно использовать прокси, чтобы зайти на рутор, достаточно воспользоваться нашим ресурсом. Все новые фильмы, игры, сериалы, книги и музыка за 2013 и 2014 годы через торрент бесплатно. Скачивайте фильмы в хорошем качестве, игры для пк, xbox, playstation без регистрации. У нас вы найдете новые Зарубежные сериалы и Русские сериалы 2013, 2014, 2015 годов. Оставайтесь с нами, качайте любимые фильмы, игры, сериалы, книги и музыку.