img image001 image001 image001 image001 image001 image001 image001 image001 image001 image001 image001 image001 image001 image001 image001

Planets Sun Sun Sun
Статистика раздачи
Автор: PriZraK | Размер: 4.34 ГБ | Добавлен: 26 окт 2016
Раздают: 151    Качают: 16
Скачать торрент
Скачать торрент
Описание торрента

СообщениеДобавлено: 26 окт 2016 


Информация о фильме
Оригинальное название: Восхождение на Олимп
Год выпуска: 2015
Жанр: Детектив
Режиссер: Сергей Щербин
В ролях: Владислав Резник, Юрий Батурин, Мария Капустинская, Заза Чантурия, Нино Нинидзе, Сергей Кудрявцев, Юрий Ицков, Сергей Барковский, Лука Тархан-Моурави, Наталья Ткаченко
О фильме:
Лето 1980. Москва готовится к Олимпиаде. Все силы КГБ и МВД брошены на поддержание правопорядка. Но, несмотря на все предпринятые меры, в столице происходит череда громких ограблений. Среди них – дерзкая кража шедевра старого мастера из Музея изобразительных искусств. Следователь Алексей Ставров любой ценой должен вернуть полотно до начала Олимпиады, ведь на карте – репутация страны. Однако дело оказывается намного сложнее, чем можно было предположить: его истоки – в событиях 1945 года, а замешаны в нем художники и ученые, лимитчицы и интуристы, воры в законе и люди в погонах...

Страна: Россия
Студия: ООО "Централ Партнершип"
Продолжительность: 8 x ~ 00:51:00
Перевод: Не требуется
Файл
Формат: AVI
Качество: HDTVRip
Видео: XviD build 73, 704x400 (16:9), 25.000 fps, ~ 1300 Kbps (~ 0.185 bit/pixel)
Звук: 48.0 kHz, MP3, 2/0 ch, 128 kbps
Субтитры: нет
General
Complete name : Voshozhdenije.Na.Olimp.2016.WEB-DLRip.GeneralFilm\01.serija.avi
Format : AVI
Format/Info : Audio Video Interleave
File size : 556 MiB
Duration : 53mn 59s
Overall bit rate : 1 441 Kbps
Writing application : VirtualDubMod 1.5.10.3 | www.virtualdub-fr.org || (build 2550/release)
Writing library : VirtualDubMod build 2550/release
Video
ID : 0
Format : MPEG-4 Visual
Format profile : Advanced Simple@L5
Format settings, BVOP : 1
Format settings, QPel : No
Format settings, GMC : No warppoints
Format settings, Matrix : Custom
Codec ID : XVID
Codec ID/Hint : XviD
Duration : 53mn 59s
Bit rate : 1 303 Kbps
Width : 704 pixels
Height : 400 pixels
Display aspect ratio : 16:9
Frame rate : 25.000 fps
Color space : YUV
Chroma subsampling : 4:2:0
Bit depth : 8 bits
Scan type : Progressive
Compression mode : Lossy
Bits/(Pixel*Frame) : 0.185
Stream size : 503 MiB (90%)
Writing library : XviD 73
Audio
ID : 1
Format : MPEG Audio
Format version : Version 1
Format profile : Layer 3
Codec ID : 55
Codec ID/Hint : MP3
Duration : 53mn 59s
Bit rate mode : Constant
Bit rate : 128 Kbps
Channel(s) : 2 channels
Sampling rate : 48.0 KHz
Compression mode : Lossy
Stream size : 49.4 MiB (9%)
Alignment : Aligned on interleaves
Interleave, duration : 40 ms (1.00 video frame)
Interleave, preload duratio : 504 ms
Writing library : LAME3.99r
Encoding settings : -m s -V 4 -q 0 -lowpass 17 -b 128



Релиз от:



   Похожие торренты   Торрент   Размер 
В этой теме нет новых непрочитанных сообщений. Восхождение на Олимп [01-08 из 08] (2015) WEB-DLRip от ExKinoRay

104 | 10

5.47 ГБ

В этой теме нет новых непрочитанных сообщений. Восхождение на Олимп [01-08 из 08] (2016) WEB-DLRip | КПК

77 | 8

1.88 ГБ

В этой теме нет новых непрочитанных сообщений. Восхождение на Олимп [01-08 из 08] (2016) WEB-DLRip-AVC от Files-x

24 | 3

5.34 ГБ

В этой теме нет новых непрочитанных сообщений. Восхождение на Олимп [01-04 из 08] (2016) WEB-DLRip-AVC от Korsar

90 | 28

2.54 ГБ

В этой теме нет новых непрочитанных сообщений. Восхождение на Олимп [01-08 из 08] (2016) WEB-DLRip-AVC от Korsar

87 | 19

5.05 ГБ

В этой теме нет новых непрочитанных сообщений. Восхождение на Олимп [01-08 из 08] (2015) WEB-DL 720p от ExKinoRay

105 | 13

8.93 ГБ

В этой теме нет новых непрочитанных сообщений. Восхождение Юпитер / Jupiter Ascending (2015) WEB-DLRip | iTunes

2884 | 32

2.05 ГБ




Вы не можете начинать темы
Вы не можете отвечать на сообщения
Вы не можете редактировать свои сообщения
Вы не можете удалять свои сообщения
Вы не можете добавлять вложения

Перейти:  
Для Мосгорсуда, Роскомнадзора и рекламодателей: mosgorsud-torrent[собачка]yandex.ru
 Вход
ppkBB3cker v.2 © 2008-2014 @ PPK
[ Time : 0.093s | 15 Queries | GZIP : Off ]

Торрент трекер RUTOR.IN, Не можете зайти на rutor.org? Какой новый адрес рутор? Какое зеркало рутор? Не работает rutor.org и зеркала? Тогда наш торрент специально для вас. Rutor.in неофициальное зеркало rutor. В случае если у Вас заблокирован rutor или вдруг Вы не можете на него зайти, то Вы без труда сможете скачать бесплатно и без рекламы последние новинки кино, игр, сериалов и прочего у нас, на Rutor.in. Не нужно использовать прокси, чтобы зайти на рутор, достаточно воспользоваться нашим ресурсом. Все новые фильмы, игры, сериалы, книги и музыка за 2013 и 2014 годы через торрент бесплатно. Скачивайте фильмы в хорошем качестве, игры для пк, xbox, playstation без регистрации. У нас вы найдете новые Зарубежные сериалы и Русские сериалы 2013, 2014, 2015 годов. Оставайтесь с нами, качайте любимые фильмы, игры, сериалы, книги и музыку.
cron